<?xml version="1.0" standalone="no"?>
<!DOCTYPE svg PUBLIC "-//W3C//DTD SVG 1.1//EN" "http://www.w3.org/Graphics/SVG/1.1/DTD/svg11.dtd" >
<svg xmlns="http://www.w3.org/2000/svg">
<metadata></metadata>
<defs>
<font id="DevLys010Normal" horiz-adv-x="1572" >
<font-face units-per-em="2048" ascent="1638" descent="-410" />
<missing-glyph horiz-adv-x="776" />
<glyph horiz-adv-x="0" />
<glyph horiz-adv-x="2048" />
<glyph unicode="&#xd;" horiz-adv-x="776" />
<glyph unicode=" "  horiz-adv-x="776" />
<glyph unicode="&#x09;" horiz-adv-x="776" />
<glyph unicode="&#xa0;" horiz-adv-x="776" />
<glyph unicode="!" horiz-adv-x="614" d="M332 1372h125l-17 -1012h-92zM336 0v125h129v-125h-129z" />
<glyph unicode="&#x22;" horiz-adv-x="468" d="M0 973v84h479v-84h-190l375 -389v-207q-70 -78 -193 -78q-117 0 -210 71q-97 74 -97 195v408h-164zM272 563q0 -85 54 -127q26 -20 61 -37q35 -10 72 -10l55 6l55 19l47 30l35 41l-379 404v-326z" />
<glyph unicode="#" horiz-adv-x="1107" d="M0 973v84h1124v-84h-532v-256l31 16l26 15l70 24q25 6 65 10q97 0 168 -71q29 -33 54 -80q18 -41 18 -94t-20.5 -109.5t-65.5 -120.5l-37 -47l-49 -53l-76 69l41 39l31 35q29 38 50 93t21.5 102t-9 70.5t-31.5 46.5q-43 34 -107 34q-67 0 -100 -18q-27 -6 -45 -23 l-39 -32q-2 -10 -4 -13l-2 -10l-4 -10l-5 -6q-12 -20 -38 -37l-56 -25l-26 -6l-31 -2q-18 0 -29 -4h-20l12 -25l88 -131l102 -131l156 -174l-88 -57l-53 55l-166 203l-188 272l-72 121l-21 39l-18 41l88 45l76 -131l16 -19l29 -16l33 -12l32 -4q48 4 76 45l6 31l2 53v258 h-483z" />
<glyph unicode="$" horiz-adv-x="1132" d="M29 479v88h483v490h88v-490h487v-88h-487v-479h-88v479h-483z" />
<glyph unicode="%" horiz-adv-x="344" d="M104 164v139h144v-139h-144zM104 752v137h144v-137h-144z" />
<glyph unicode="&#x26;" horiz-adv-x="1132" d="M29 479v88h1050v-88h-1050z" />
<glyph unicode="'" horiz-adv-x="759" d="M0 973v84h760v-84h-152q25 -25 43 -55l33 -60l18 -63l9 -66q0 -76 -27 -139t-81 -122q-107 -118 -267 -118l340 -282l-72 -72l-491 416l71 71l68 -55l12 -4h12l54 2q63 8 114 37l64 43l49 51l33 55l10 43l4 60l-31 -27l-24 -18q-56 -40 -133 -47q-149 0 -221 135 q-16 39 -16.5 93.5t57.5 119.5zM289 850q0 -93 81 -128q25 -11 59 -11q69 0 124 55l39 55l-19 43q-17 55 -65.5 83t-85.5 28t-57 -10q-49 -13 -68 -68z" />
<glyph unicode="(" horiz-adv-x="368" d="M68 -193l92 310h137l-137 -310h-92zM168 541v118h131v-118h-131z" />
<glyph unicode=")" horiz-adv-x="1280" d="M0 973v84h1288v-84h-217v-281h-399q-29 0 -57 -9t-46 -28q-16 -12 -28 -45l-9 -63q0 -157 183 -234q55 -16 112 -16l23 2l31 4l24 4l10 2l-2 19q0 16 11 37q14 53 43.5 82.5t60.5 29.5t47 -6t29 -20l16 -33q6 -16 6 -41t-7 -47q-17 -55 -60 -82q-12 -6 -43 -10l8 -37 l20 -84l105 -285h-113l-55 176q-6 -18 -41 -39l-88 -43l-86 -24q-202 -43 -295 96l-20 41l-19 63l-104 9l-72 14q-86 25 -133 78q-43 53 -43 114.5t11 90t32 59.5q20 25 51 41q37 14 71 14t56 -10q27 -6 53 -27l29 -32l12 -11l-55 -51l-16 12l-11 11l-32 18l-33 6l-35 -6 l-23 -16l-14 -29l-8 -33q0 -101 129 -147l102 -29q10 -2 17 -2h10q16 0 23 6l6 13l20 32q6 12 17 21l16 14l22 17l21 12l16 6l-43 35l-26 33q-70 88 -70 182q0 55 13 98t42 70t57 37q49 18 93 18l332 2v201h-965zM528 102q0 -51 45 -94l52 -22q20 -6 63 -11q41 0 94.5 18.5 t73.5 29.5l76 43l33 28l-33 133l-14 -4l-33 -2q-23 0 -35 -4h-23l-43 2l-51 10l-22 4l-31 9l-45 -15l-31 -12q-76 -39 -76 -113z" />
<glyph unicode="*" horiz-adv-x="415" d="M104 920l89 292h118l-118 -292h-89z" />
<glyph unicode="+" horiz-adv-x="4" d="M-528 -117h120v-114h-120v114z" />
<glyph unicode="," horiz-adv-x="911" d="M0 973v84h915v-84h-139v-385q0 -62 -43 -105q-18 -23 -47 -39l-53 -22l-78 61q41 0 78 39l24 43q6 14 11 45v363h-387v-504l467 -436l24 -33q12 -16 19 -37l6 -43q0 -41 -18.5 -66.5t-59.5 -48.5l-78 -20l-92 90l14 -4l33 -2l12 2h13l10 4q23 4 31 10l18 15l2 6l4 6l4 16 q0 32 -31 56l-6 6l-10 6l-475 448v529h-168z" />
<glyph unicode="-" horiz-adv-x="344" d="M104 0v135h144v-135h-144z" />
<glyph unicode="." horiz-adv-x="739" d="M0 973v84h756v-84h-80v-357q0 -107 -64 -185q-59 -73 -180 -73q-63 0 -102 17.5t-78 53.5q-76 70 -76 177v367h-176zM285 608q0 -115 79 -160q25 -14 61 -14q102 0 134 111l8 69v359h-282v-365z" />
<glyph unicode="/" horiz-adv-x="559" d="M31 770q-43 133 41 224q55 59 151 59q74 0 131.5 -45.5t57.5 -114.5v-62h-93v64q0 37 -22.5 59.5t-59.5 22.5t-54 -10.5t-31 -28.5l-21 -41l-6 -47q0 -111 101 -196q24 -19 50 -19l70 20l80 9l37 -2l41 -5l45 -77l-137 -7q-49 0 -80 -10q-127 -29 -127 -149 q0 -90 108 -131l64 -9q121 0 252 97l45 41l53 57v-109q0 -13 -29 -36l-73 -52q-83 -56 -198 -76q-38 -6 -80 -6t-86 15.5t-86 47.5q-83 63 -83 157q0 68 51 133l21 20l33 27q-25 12 -66 43q-27 23 -59 63zM508 973v84h61v-84h-61z" />
<glyph unicode="0" horiz-adv-x="796" d="M59 479q0 213 37 318l21 51l26 45l29 41l35 35q79 59 186 59q49 0 80 -10q35 -6 66 -25q31 -12 57 -39l47 -55l35 -76l29 -82l16 -102l6 -135v-23q0 -245 -86 -368q-62 -94 -143 -115q-130 -34 -242 10q-125 59 -172 244q-27 106 -27 227zM189 501q1 -249 55 -329 q30 -43 69 -68q41 -20 82 -20t78 19t66 65q61 81 61 336q0 135 -16 209q-20 134 -112 189q-36 22 -78 22q-82 0 -140 -74q-66 -100 -65 -349z" />
<glyph unicode="1" horiz-adv-x="796" d="M156 649v123q45 16 96 49l84 68q39 33 70 69l47 70l82 2v-1030h-127v803q-18 -20 -52 -45l-102 -66l-33 -16z" />
<glyph unicode="2" horiz-adv-x="796" d="M43 0q0 29 4 43l12 43q8 29 31 64q16 31 51 71l31 37l35 35l98 84q86 70 135 119l88 94q62 79 62 155q0 68 -52 125q-51 54 -141 54q-135 0 -186 -121q-14 -43 -14 -86l-129 16q12 137 98 219q88 76 233 76q143 0 232 -79q88 -78 88 -206l-2 -34l-2 -27q0 -12 -8 -27 l-11 -28l-16 -33l-45 -68l-107 -112l-110 -99l-94 -77l-54 -52l-53 -65h504v-121h-678z" />
<glyph unicode="3" horiz-adv-x="796" d="M59 268l127 21q19 -113 71 -157q24 -21 60 -38q133 -35 219 50q62 63 62 153q0 45 -13 82t-42 61l-33 25l-33 18l-37 11l-43 4q-27 0 -43 -4l-47 -11l15 113l20 -2h39q25 6 37 8q89 34 116 87q17 32 17 70t-10 67.5t-33 51.5q-50 46 -123 46q-78 0 -125 -45 q-23 -18 -37 -51.5t-24 -86.5l-125 23q30 185 193 246q50 18 105.5 18t88.5 -10q123 -20 195 -146q26 -47 26 -96t-8 -78q-15 -54 -74 -106q-29 -20 -59 -37q49 -14 80 -35q84 -43 108 -172q4 -22 4 -67.5t-24.5 -102.5t-73.5 -106q-103 -90 -248 -90q-203 0 -297 170 q-25 53 -31 116z" />
<glyph unicode="4" horiz-adv-x="796" d="M18 246v114l467 666h105v-666h139v-114h-139v-246h-127v246h-445zM141 360h322v463z" />
<glyph unicode="5" horiz-adv-x="796" d="M59 268l134 11q12 -93 65 -146q49 -49 113.5 -49t99.5 17.5t72 50.5q63 72 63 182q0 55 -16 94q-23 82 -115 122q-41 17 -73 17h-40q-40 0 -86 -28l-22 -17l-21 -14l-18 -19l-14 -20l-119 16l98 527h510v-121h-407l-56 -275l45 25l47 21l48 12l53 4q134 0 225 -89 q94 -92 94 -243q0 -147 -82 -242q-96 -120 -268 -120q-209 0 -299 168q-25 53 -31 116z" />
<glyph unicode="6" horiz-adv-x="796" d="M55 488q0 293 109 423q92 117 258 117q39 0 57.5 -2t59.5 -16q88 -31 143 -129q23 -43 33 -107l-127 -8l-8 27l-7 20l-14 31l-18 26q-23 23 -58 38t-68.5 15.5t-58.5 -7.5q-53 -16 -102 -78q-10 -16 -18 -32l-21 -42l-16 -47l-11 -55l-8 -66l-2 -70q43 69 109 103l69 24 q25 6 35 8.5t54 2.5t99 -24q116 -51 165 -179q22 -59 22 -103t-1 -65t-9 -57q-21 -97 -82 -158q-25 -27 -64 -53q-72 -37 -112.5 -39t-52.5 -2q-158 0 -256 110q-52 58 -69 128q-30 122 -30 266zM199 330l2 -35l4 -29l8 -30l14 -31l31 -49l43 -39l51 -25l56 -8q83 0 138 62 q56 65 56 178q0 51 -13 94t-42 72q-61 63 -144 63q-47 0 -79 -16q-33 -12 -64 -43t-42 -64q-19 -56 -19 -100z" />
<glyph unicode="7" horiz-adv-x="796" d="M68 891v123h665v-99l-49 -57l-47 -63l-49 -74l-99 -176l-38 -86l-33 -84l-15 -43l-34 -123l-15 -72l-10 -69l-2 -68h-131q0 135 34 254t60 186q38 99 84 181l86 145l45 65l51 58z" />
<glyph unicode="8" horiz-adv-x="796" d="M59 295l2 49q0 14 15 62l10 20l10 18l13 19q49 62 145 92q-17 5 -68 33q-49 32 -80 108l-8 68q0 35 4 53l15 47l24 45l37 43q84 76 215 76q141 0 219 -78q37 -33 58.5 -85t21.5 -105q0 -151 -151 -205q49 -12 82 -41q66 -42 95 -132q15 -44 15 -87q0 -147 -92 -227 q-84 -84 -246 -84q-158 0 -240 84q-44 45 -73 102q-23 57 -23 125zM188 295l7 -53l18 -52l31 -47l43 -32l51 -21l59 -6q93 0 149 58q58 60 58 149q0 47 -16 82q-23 75 -115 111q-39 16 -83 16t-79 -17q-33 -10 -63 -41q-60 -59 -60 -147zM227 768q1 -39 12 -67t34.5 -53 t50.5 -34q38 -12 75 -12q97 0 152 96q12 29 12 62q0 64 -49 117q-56 47 -106 47t-80.5 -12.5t-53.5 -35.5q-40 -37 -47 -108z" />
<glyph unicode="9" horiz-adv-x="796" d="M60 669q-1 90 23 152.5t68 108.5q95 98 232 98q33 0 49 -4q27 0 50.5 -8t37.5 -17l45 -24q75 -48 125 -154q43 -101 43 -289v-24q0 -134 -15.5 -195t-30.5 -106t-48 -90q-70 -95 -166 -119q-63 -14 -105 -14q-71 0 -112 16q-51 12 -86 47q-69 57 -92 189l121 12 q6 -45 20 -78t33.5 -48.5t52.5 -29.5l66 -8l55 6q27 6 47 23l39 30q18 16 31 37l12 23l12 28l11 31l12 39l14 76l4 78v28q-38 -66 -102 -99q-33 -17 -70 -30l-74 -8q-119 0 -215 90q-45 47 -66 112t-21 121zM188 676.5q0 -47.5 14 -86.5q27 -80 111 -119q43 -14 84 -14 t77 13t64 45q56 66 56 173q0 165 -119 218q-39 18 -73 18t-45 -2t-43 -16q-69 -29 -111 -132q-15 -50 -15 -97.5z" />
<glyph unicode=":" horiz-adv-x="1304" d="M0 973v84h1300v-84h-688v-256h248l58 22l57 9q106 0 182 -98q80 -104 80 -209q0 -182 -78 -332l-16 -29l-23 -31l-88 55l35 50l25 43q61 112 61 225q0 87 -51 156q-48 63 -129 63q-35 0 -55 -10q-48 -13 -66 -64l-8 -49q0 -70 45 -115l18 -16l29 -16l-55 -82 q-87 36 -117 155l-8 72l6 57l18 54l-188 2l-4 -17q-17 -41 -42.5 -59t-70.5 -35l-22 -4l-31 -2h-31l-10 -2h-8l12 -25l88 -131l102 -131l156 -174l-88 -57l-53 55l-166 203l-188 272l-72 121l-21 39l-18 41l88 45l76 -131q23 -27 43 -35t53 -10t51 5q41 15 60 62l8 56v258 h-504z" />
<glyph unicode=";" horiz-adv-x="1032" d="M0 973v84h1036v-84h-147v-973h-109v315q-108 -92 -250 -92q-167 0 -270 101q-121 105 -121 278l54 -16h20q76 0 114 32q64 53 64 144q0 59 -51 143l-51 66zM264 510l6 -21l9 -16l6 -16q74 -160 231 -160q128 0 219 102l45 64v510h-360l41 -72l33 -80l10 -63 q0 -137 -119 -209l-51 -21z" />
<glyph unicode="&#x3c;" horiz-adv-x="1007" d="M0 973v84h1049v-84h-261v-309h-368q-70 0 -128 -54q-52 -48 -52 -138.5t43 -170.5q43 -74 129 -123l71 -33l101 -26l-15 14q-23 27 -28.5 39t-22.5 47q-14 47 -14 90t12 76t43 59q60 52 143 52t148 -51.5t65 -147.5q0 -120 -95 -189q-46 -34 -101 -53q-68 -14 -136.5 -14 t-146.5 28.5t-150.5 91t-117.5 142.5q-37 78 -37 152.5t18.5 122t57.5 84.5q77 75 192 75l281 2v234h-680zM596 297q0 -88 45 -135l18 -17l29 -16q53 0 88 51q28 44 35 117l-6 47l-19 39q-26 35 -64 35t-57 -8t-38 -27l-23 -39z" />
<glyph unicode="=" horiz-adv-x="1073" d="M-4 973v84h1100v-84h-148v-973l-106 2v381l-490 -291l-63 92l508 265l-117 112q-59 57 -105.5 87t-63.5 30t-35 -2q-54 -6 -163 -62l-137 -71l-63 82q10 4 32.5 17.5t30.5 16.5l178 74l103 37q43 12 67 12q56 0 172 -116l146 -154v461h-846z" />
<glyph unicode="&#x3e;" horiz-adv-x="1204" d="M0 973v84h1229v-84h-168v-973h-109v424h-219l-2 -59q0 -107 -80 -175q-100 -88 -186 -88l94 -59l109 -47l-64 -80l-129 80l-31 18l-69 54l-19 18l-49 2h-69q-63 5 -95 47q-10 18 -14 55l6 31l19 31l26 18l33 9q20 0 31 -5q14 0 30 -10l29 -16l31 -23l47 -55l70 14 q35 6 51 17q123 57 123 178q0 23 -4 31l-13 20l-18 12l-25 4l-35 -4l-94 -24l-28 -4l-46 6q-38 10 -92 53l-45 47q-43 53 -66.5 100t-23.5 79q0 55 43 81l29 11l37 4l305 2v176h-549zM246 692l2 -20l10 -23l21 -35l36 -45l25 -26l27 -17l26 -8l35 -2l33 2q25 0 55 8l53 9 l35 4q25 0 45 -11q29 -8 74 -43l229 2v486h-297v-260h-391l-14 -11z" />
<glyph unicode="?" horiz-adv-x="663" d="M0 973v84h668v-84h-320l-41 -39l-33 -53q-6 -16 -8 -51q-4 -64 51 -107q18 -16 45 -29l50 -8l176 2l37 -76h-113q-31 0 -65 -12t-65 -34q-67 -50 -67 -132q0 -98 121 -139l76 -8q89 0 225 73l82 52q27 20 33 34v-110l-66 -41l-51 -27q-143 -65 -239 -65q-63 0 -107.5 15 t-89.5 48t-70 76q-20 45 -20 87q0 81 57 146l23 23l35 29l-50 20l-32 21q-82 58 -82 149l4 41l14 47l21 41l20 25z" />
<glyph unicode="@" horiz-adv-x="1599" d="M258 -227l1024 1474l72 -51l-1041 -1493z" />
<glyph unicode="A" horiz-adv-x="811" d="M596 -109v1196h109v-1196h-109z" />
<glyph unicode="B" horiz-adv-x="1007" d="M0 973v84h1012v-84h-219v-305h-385q-41 0 -68 -17q-55 -24 -86 -104q-10 -35 -10 -87q0 -124 102 -218q43 -41 98 -70q53 -22 106 -22h5q107 0 180 61q76 64 76 160q0 67 -43 129l-43 47l72 69q14 0 37 -24l45 -66q36 -70 36 -147.5t-25.5 -129.5t-74.5 -94 q-99 -85 -260 -85q-169 0 -291 116q-61 58 -98 133q-31 72 -31 148t19.5 125t62.5 87q85 75 207 75l264 2v217h-688z" />
<glyph unicode="C" horiz-adv-x="471" d="M0 973v84h512v-84h-512zM131 507.5q0 61.5 21.5 112t64.5 93.5q86 86 203 86l47 -4q29 0 61 -13l17 -4l14 -90q-10 12 -39 21l-53 8q-31 0 -47 -4l-45 -13q-20 -6 -40.5 -18t-31.5 -25l340 -233l12 29v-142q-18 -25 -47 -45l-53 -26q-25 -12 -57 -19l-60 -4 q-129 0 -211 78q-49 41 -72.5 96t-23.5 116.5zM236 510q0 -98 59 -150q29 -33 65 -49q43 -14 70 -14h43q16 6 32 11q22 7 46 26l20 14l25 23l-336 237l-8 -20l-14 -51z" />
<glyph unicode="D" horiz-adv-x="860" d="M0 973v84h864v-84h-133v-309l49 41l45 32l29 15l29 12l26 6l29 2q40 0 66 -14l10 -74l-31 4l-35 -4l-53 -12q-62 -12 -113 -89q-51 -75 -51 -145v-438h-106v303q-76 -76 -191 -76q-117 0 -201 76q-43 39 -68.5 91t-25.5 112.5t20.5 108t65.5 90.5t81 57q67 26 120 26 l55 -6l51 -16v-86l-47 16l-45 6q-111 0 -170 -114q-12 -31 -18 -74q0 -131 108 -195q37 -14 73 -14q63 0 120 47l27 28q43 42 45 83v510h-625z" />
<glyph unicode="E" horiz-adv-x="563" d="M0 973v84h580v-84h-215v-365h360v-88h-360v-155l-3 -15v-8q-6 -10 -10 -14l-33 -4q-20 0 -49 22l-69 74l-60 80q-16 31 -20 55l6 23q10 13 33 22l20 6l80 2v365h-260z" />
<glyph unicode="F" horiz-adv-x="688" d="M37 565q31 -14 78 -28l90 -9q114 0 196 56q91 63 91 182q0 83 -56 141q-49 62 -137 62q-55 0 -84 -22.5t-39 -47.5l-8 -45q0 -33 14.5 -53.5t50.5 -36.5l27 -8l39 -6v-86h-27q-53 0 -99 18t-78 64.5t-32 98.5t19 88q36 70 133 105q57 15 102 15t97 -23q49 -16 94 -59 q88 -84 88 -205q0 -139 -100 -227q-45 -35 -121 -60q-76 -20 -160 -20l-22 2q12 -31 43 -62l71 -53q86 -51 169 -51q165 0 290 125l47 51l51 76v-160l-57 -53l-47 -35l-68 -39l-65 -27l-68 -18l-67 -4q-209 0 -353 176q-27 31 -49 72z" />
<glyph unicode="G" horiz-adv-x="1204" d="M0 973v84h1200v-84h-264v-213l59 -33q66 -43 100 -115q34 -71 34 -139q0 -67 -3 -91q-2 -20 -16 -67q-31 -103 -131 -168q-48 -25 -104 -25h-3q-57 1 -90 12q-71 23 -127 91q-18 27 -34 72q-12 -39 -32.5 -73t-53.5 -60q-65 -53 -140 -53t-125 25q-91 45 -135 171 q-16 59 -16 112.5t2 73t18 67.5t50 98q66 96 198 96q88 0 143 -43q58 -32 95 -121q39 61 61 94q59 59 141 74v215h-827zM227 375q18 -80 37 -113q39 -67 121 -67q98 0 158 122l18 52l19 73l-19 66q-20 85 -87 133q-40 29 -84 29t-70 -16q-50 -31 -82 -126q-11 -51 -11 -87 v-66zM676 414l12 -49q23 -80 68 -121t98 -41t82 19q51 32 68 128l8 92v58q-6 22 -10 47.5t-21 52.5q-36 74 -125 74q-43 0 -78 -29q-33 -23 -54 -63q-32 -62 -44 -93l-4 -47v-28z" />
<glyph unicode="H" horiz-adv-x="563" d="M8 866q0 136 127 178q37 13 78 13t78 -12.5t65 -34.5q56 -47 56 -133v-277h336v-88h-336v-186l-2 -13l-17 -14l-20 -4q-38 0 -144 108l-77 93q-23 35 -27 55l6 16l16 17l19 10l14 4l123 2v287q0 37 -21 57q-32 33 -60.5 33t-51.5 -8l-35 -19l-22 -32l-9 -44l2 -28l11 -31 l4 -14l10 -19l-102 2l-9 15l-2 12l-8 29zM504 973v84h80v-84h-80z" />
<glyph unicode="I" horiz-adv-x="440" d="M0 973v84h453v-84h-189v-340q0 -85 58 -141q28 -27 53.5 -36t64.5 -14q92 0 166 96q31 40 37 80v-157l-45 -41l-51 -29l-29 -10l-24 -6l-29 -6h-27q-115 0 -194 77q-84 72 -84 203v324h-160z" />
<glyph unicode="J" horiz-adv-x="1179" d="M51 479l162 96q20 6 39 23l45 29l47 35l-43 24l-27 23q-31 29 -53 69q-16 39 -16 84q0 133 132 178q40 13 82 13t76.5 -13.5t66.5 -37.5q67 -49 67 -140q0 -67 -62 -137l-61 -51l223 -125l66 -27l129 94v357h-219v84h479v-84h-148v-973h-112v508l-525 -404l-63 89 l381 272l-146 76l-43 16l-67 35l-29 18l-147 -102l-164 -109zM299 862q0 -60 57 -106l37 -25l27 -8l29 14q12 6 20 17q47 40 49 84v15q0 33 -8 48q-6 20 -25 39l-39 25l-43 8q-36 0 -73 -29l-23 -35z" />
<glyph unicode="K" horiz-adv-x="1204" d="M0 973v84h1208v-84h-147v-973h-109v717h-653q-29 0 -29 -27l4 -26l35 -64l45 -55l27 -25l35 -20l41 -6l41 4l108 34l45 7q57 0 94 -50q29 -49 35 -114q0 -57 -20 -100.5t-58 -74.5q-60 -50 -112 -79q-51 -23 -94 -23l204 -153l-84 -66l-208 201h-93q-48 0 -85 19.5 t-56 43.5q-10 20 -14 52l6 28l18 27l27 18l33 6q18 0 45 -14l57 -37l39 -37l14 -20l82 18l58 19q141 62 141 172l-6 26q-2 12 -15 21l-20 12l-27 4l-34 -4l-99 -24l-30 -4q-100 0 -195 106q-43 49 -72 102q-23 51 -23 90q0 45 31 72l35 17l43 6l684 2v172h-952z" />
<glyph unicode="L" horiz-adv-x="759" d="M-20 973v84h808v-84h-221v-342q-4 -14 -4 -21l-12 -45q-20 -58 -111 -80q-16 0 -24 -4l-21 -2l-22 2q-12 0 -29 8l127 -192l55 -72l99 -112l43 -43l-84 -70q-25 10 -99 104l-188 271l-61 92l-132 223l89 58l59 -115q30 -72 121 -72l45 6q18 6 26 21l15 30l4 44l-2 30v281 h-481zM592 616h360v-84h-288z" />
<glyph unicode="M" horiz-adv-x="1079" d="M0 973v84h1096v-84h-172v-268h-437l-12 -17l-2 -14l2 -23q4 -16 10 -24l17 -33l30 -43l31 -37l31 -25l31 -18l30 -4h13l149 43l51 12l35 4q48 0 82 -55l16 -51l7 -58q0 -78 -22 -137q-43 -119 -169 -170q-61 -20 -131 -20q-142 0 -293 119q-49 39 -112 98 q-51 55 -105 123l-63 86l-21 41l80 78q2 -8 3 -13.5t17 -32.5q24 -41 56 -81q53 -79 96 -123l100 -97q141 -114 248 -114q92 0 152 65q59 62 59 174q0 68 -53 68q-16 0 -43 -7q-48 -12 -84 -30l-43 -14l-29 -4q-104 0 -196 125q-99 122 -99 206l6 39q6 18 23 27l35 14l45 4 l354 2v185h-819z" />
<glyph unicode="N" horiz-adv-x="1204" d="M0 973v84h1208v-84h-260v-176l41 -23l43 -18q80 -63 80 -174q0 -222 -190 -377q-174 -144 -394 -144q-139 0 -227 80q-86 78 -86 212.5t109 228.5l-31 12l-47 22l-17 13q-43 33 -68.5 75t-25.5 85t4 61l19 51l26 39q12 18 31 31zM240 803q0 -41 16 -66.5t51 -54.5 q66 -41 125 -41h23l26 2h13l14 2h12q10 2 12 4l39 -78l-6 -2l-8 2h-22q-89 0 -152 -59q-68 -64 -68 -150q0 -85 66 -159q35 -31 76 -48t88 -17h6q92 0 192 61l39 26l49 37l-51 62l-45 82l-33 90q-10 47 -10 92q0 100 74 162l78 41v182h-496q-26 0 -76 -80l-24 -49zM788 573 q0 -94 58 -182l22 -33l35 -36l12 10l25 30q72 103 72 220l-6 47q-8 47 -42 66.5t-64 19.5q-51 0 -85 -43l-20 -45z" />
<glyph unicode="O" horiz-adv-x="468" d="M0 973v84h475v-84h-475zM131 510.5q0 60.5 19.5 110t60.5 95.5q81 91 197 91l36 -2l41 -6l35 -8q18 0 29 -5l22 -106l-22 12l-19 8l-55 17l-55 6q-45 0 -75 -12q-55 -22 -89 -109q-10 -35 -10 -75t12 -79q26 -85 96 -120q46 -15 105 -15q72 16 100 37q71 38 100 88v-119 l-92 -65l-63 -23l-64 -6q-125 0 -213 80q-45 41 -70.5 93t-25.5 112.5z" />
<glyph unicode="P" horiz-adv-x="663" d="M0 973v84h676v-84h-676zM100 696v84h625v-84h-137l-60 -41l-41 -32q-100 -88 -100 -177q0 -107 80 -137l57 -8q121 0 240 143l72 95q25 37 24 55v-182q-6 -16 -33 -43l-71 -60q-128 -92 -236 -92q-105 0 -170 59q-31 25 -53 70q-16 45 -16 91t7 69q15 48 41 84 q57 77 107 104z" />
<glyph unicode="Q" horiz-adv-x="1280" d="M0 973v84h1292v-84h-571v-305l20 18l43 31q74 45 126 45t100.5 -18.5t88.5 -54.5q81 -73 81 -183q0 -122 -101 -264l-106 -113l-88 72l53 39l39 36q94 107 94 238q0 109 -89 150q-32 14 -69 14q-70 0 -139 -92q-12 -12 -24 -39l-29 -53v-494h-109v408q-18 -23 -45 -37 l-47 -23l-51 -14l-51 -4q-39 0 -55.5 2t-51.5 16t-79 52t-58 74q-27 68 -27 124v375h-147zM252 584q0 -71 16.5 -98t30.5 -41.5t43 -26.5l66 -8q119 0 183 104q15 25 21 55v404h-360v-389z" />
<glyph unicode="R" horiz-adv-x="563" d="M0 973v84h567v-84h-567zM117 512.5q0 64.5 12 100.5t33 65q41 59 127 59l463 2v-80h-408q-37 0 -59 -10q-66 -16 -66 -97q0 -151 141 -331l97 -108q35 -31 51 -35l-72 -66l-94 84l-66 72q-76 93 -120 186q-39 94 -39 158.5z" />
<glyph unicode="S" horiz-adv-x="12" d="M-774 1327l76 84l379 -354h-52zM-547 1520l96 53l328 -516h-72z" />
<glyph unicode="T" horiz-adv-x="835" d="M0 973v84h836v-84h-836zM121 723l88 70q-4 -4 -4 -14q0 -20 16 -66l82 -181q63 -125 135 -194q74 -63 150 -64q51 0 88 48q34 41 41 120q0 91 -99 217q-18 25 -32 39q-18 25 -31 31l465 2v-80h-293l27 -33l37 -67l20 -57l8 -43q0 -171 -134 -233q-48 -23 -111 -23 q-137 0 -250 135q-65 74 -101.5 146.5t-52.5 107.5l-41 100q-4 10 -5 21.5t-3 17.5z" />
<glyph unicode="U" horiz-adv-x="540" d="M0 973v84h549v-84h-549zM123 632q-1 6 -1 10q0 15 5 24q9 18 45 30l25 2l534 2v-84h-354v-180l-2 -10v-10q0 -12 -13 -19l-30 -4q-10 0 -45 25l-76 76q-45 51 -65.5 83.5t-22.5 54.5z" />
<glyph unicode="V" horiz-adv-x="1007" d="M12 973v84h1008v-84h-211v-318h-365q-111 0 -172 -116q-12 -31 -12 -81t25 -107.5t75 -110.5q99 -103 236 -103q89 0 138.5 29t82.5 61l55 70l89 -49q-33 -53 -61.5 -78.5t-43 -36t-52.5 -33.5q-80 -47 -179 -47t-181 31t-152 96q-140 130 -140 297q0 55 19 104.5 t58 84.5q86 79 191 79l285 3v225h-693z" />
<glyph unicode="W" horiz-adv-x="24" d="M-690 1470l106 3q0 -94 68 -158q65 -55 156 -55q142 0 202 118q16 43 17 92l104 3q0 -115 -95 -208q-40 -40 -97 -63q-66 -20 -133 -20q-205 0 -290 166q-26 49 -38 122z" />
<glyph unicode="X" horiz-adv-x="587" d="M0 973v84h588v-84h-152v-545q-4 -20 -13 -29.5t-32 -13.5q-27 0 -63 23l-82 69q-82 86 -90 150q2 14 4 18l14 12q19 5 21 7h8l10 2l119 2v305h-332z" />
<glyph unicode="Y" horiz-adv-x="788" d="M0 973v84h793v-84h-793zM152 446q0 124 81 201q86 82 220 82q55 0 102 -16q49 -12 94 -45l56 -43q18 -14 20 -27l35 27l67 45l47 20l52 17l20 4l27 4v-94l-53 -15l-64 -31q-20 -14 -27.5 -19t-27.5 -26l-35 -41l-31 -49l-30 -59l-17 -47l-88 51l4 25l51 90l13 30 q-4 12 -30 34t-60 38l-70 29q-20 6 -56.5 8t-47.5 0q-47 -9 -97 -57q-55 -71 -55 -141.5t43 -141.5q43 -63 133 -127l72 -45l104 -49l-51 -86q-105 0 -277 178q-124 128 -124 276z" />
<glyph unicode="Z" horiz-adv-x="10" d="M-383 1373q0 46 15.5 78t49.5 57q69 51 158 51l60 -7l55 -18l-2 -82l-14 4l-15 6l-39 8l-43 5q-87 0 -122 -83q-11 -28 -11 -61t2 -47q8 -59 64 -143l28 -39l39 -47l-78 2q-14 9 -28 28l-47 74q-8 14 -26.5 54t-27.5 59q-18 55 -18 101z" />
<glyph unicode="[" horiz-adv-x="960" d="M0 973v84h977v-84h-453v-293q0 -92 -84 -135l-73 -21l-95 -6l50 -108l49 -76q68 -88 159 -139q97 -45 170.5 -45t130 12t107.5 34q85 38 127.5 65.5t75.5 60.5v-107l-92 -59l-109 -47l-115 -33q-66 -10 -118 -10q-150 0 -263 71q-68 43 -133 121q-59 78 -118 193l-35 81 l-58 166l93 50l34 -115l13 -12l12 -9l33 -14l39 -4l41 6q39 13 49 47l6 39v287h-420zM713 502q-56 150 56 252q75 67 171 67l45 -6l47 -16l25 -74l-47 12l-52 6q-35 0 -61 -10q-56 -12 -86 -69q-10 -27 -10 -63t9 -61q18 -50 73 -71l53 -8q33 0 62.5 7t57.5 24q56 33 85 86 v-121l-33 -27l-27 -16l-77 -33q-29 -6 -38.5 -8t-46 -2t-78.5 15q-81 29 -128 116z" />
<glyph unicode="\" horiz-adv-x="835" d="M51 1251l109 66q132 69 252 69q141 0 250 -93q106 -92 106 -230.5t-115 -255.5q-150 -150 -258 -150v-297h-106v345q23 0 69.5 19t128.5 72q177 113 177 255q0 98 -74 172q-75 75 -170 75q-97 0 -203 -65q-74 -41 -88 -72zM285 0v113h118v-113h-118z" />
<glyph unicode="]" horiz-adv-x="368" d="M76 -172l84 289h125l-121 -289h-88z" />
<glyph unicode="^" horiz-adv-x="391" d="M139 944l121 293h88l-84 -293h-125z" />
<glyph unicode="_" horiz-adv-x="1671" d="M0 973v84h1692v-84h-811v-428l247 114l-12 21l-2 29q0 27 7 47.5t25 39.5q32 35 83 42q106 0 106 -127q0 -40 -45 -72l-47 -29l158 -198l-66 -19q-25 -6 -60.5 -23.5t-63 -54t-27.5 -75.5t12 -66t37 -49l47 -23l59 -8q46 0 83.5 16.5t76.5 49.5l27 26l35 39l75 -86 l-45 -39l-37 -24l-53 -27l-49 -18l-53 -13l-51 -4q-126 0 -201 62q-76 62 -76 166q0 133 126 192q38 17 79 17l-113 137l-282 -135v-453h-109v408l-440 -328l-68 92l461 299l-107 115q-104 108 -153 116q-49 0 -195 -69l-139 -72l-63 82l47 25l127 57l147 57q60 18 86 19 q50 3 180 -127l88 -99q25 -31 29 -45v443h-772z" />
<glyph unicode="`" horiz-adv-x="10" d="M-526 -244q0 51 16 90q23 75 113 119q45 15 84 15h170v-84h-146q-50 0 -78 -28t-37.5 -48.5t-11.5 -55.5q-4 -76 54 -112q56 -45 129 -45q53 0 94 18l47 25l22 22l54 -80l-33 -20l-31 -14q-94 -35 -170 -35q-54 0 -96 16q-45 12 -90 43q-90 62 -90 174z" />
<glyph unicode="a" horiz-adv-x="4" d="M-195 1286v133h142v-133h-142z" />
<glyph unicode="b" horiz-adv-x="911" d="M0 973v84h924v-84h-232v-268h-428l-12 -19l2 -29l8 -22l19 -31l30 -39l60 -65l32 -27l29 -6q63 0 154 37l49 14l41 4q75 0 104 -96l8 -55q0 -72 -19 -126q-30 -85 -111 -147q-27 -20 -52 -37q-51 -26 -95 -26h-3l22 -25l21 -14l82 -72l139 -88l-55 -88l-53 35 q-35 20 -62 47l-104 90l-90 86l-17 21h-72q-20 4 -39 6q-35 4 -71.5 17t-54.5 36q-29 40 -29 92l6 35q6 18 21 33l28 20l39 8q71 0 150 -79l63 -80q35 0 71 8t52 18q125 58 125 197l-2 39q0 23 -4 31q0 12 -10 18l-21 8l-33 -8l-67 -25l-78 -22l-57 -8q-37 0 -84.5 32.5 t-94.5 96.5q-98 135 -98 198l6 31l23 29l33 20l34 8l357 2v185h-584z" />
<glyph unicode="c" horiz-adv-x="911" d="M0 973v84h907l4 -84h-147v-973h-109v311q-18 -25 -47 -45l-53 -26q-25 -12 -57 -19l-60 -4q-129 0 -211 78q-49 41 -72.5 96t-23.5 116.5t21.5 112t64.5 93.5q86 86 203 86l47 -4q29 0 61 -13l17 -4l14 -90q-10 12 -39 21l-53 8q-31 0 -47 -4l-45 -13q-20 -6 -40.5 -18 t-31.5 -25l340 -233l12 45v504h-655zM236 510q0 -98 59 -150q29 -33 65 -49q43 -14 70 -14h43q16 6 32 11q22 7 46 26l20 14l25 23l-336 237l-8 -20l-14 -51z" />
<glyph unicode="d" horiz-adv-x="1304" d="M0 973v84h1321v-84h-590v-309l37 34l25 21q71 51 139 51q119 0 205 -78q80 -71 80 -186q0 -107 -107 -250l-45 -55l-61 -68l-89 68q32 11 97 100q92 117 92 213q0 119 -85 158q-32 14 -74 14q-83 0 -152 -90q-62 -76 -62 -158v-438h-106v303q-76 -76 -191 -76 q-116 0 -206 80q-46 41 -68 90q-22 60 -22 116q0 54 20 105q20 50 64 90t80 54q67 26 120 26l55 -6q37 -8 55 -16v-86l-20 8l-10 6l-31 8l-31 5q-85 0 -134 -61q-50 -63 -50 -146q0 -80 46 -138q22 -26 54 -43q37 -14 75 -14q65 0 122 47l27 28q43 42 45 83v510h-625z" />
<glyph unicode="e" horiz-adv-x="966" d="M0 973v84h999v-84h-153v-973h-107v516h-374v-143l2 -23q-2 -10 -5 -12l-16 -12l-27 -4q-33 0 -83 52q-70 75 -103 124q-18 33 -20 53l6 27q11 14 33 22l20 6l88 2v365h-260zM365 608h374v365h-374v-365z" />
<glyph unicode="f" horiz-adv-x="442" d="M0 973v84h186l-8 18l-24 107l-2 32q0 127 85 212q92 92 234 92q152 0 350 -119q72 -43 144 -101l147 -122l59 -62l62 -59l-137 2l-52 45l-49 49q-74 67 -121 98l-122 82q-166 99 -287 99q-47 0 -82 -17q-75 -23 -117 -119q-14 -47 -14 -96l2 -41l10 -47l12 -39l9 -16 l178 2v-84h-174v-973h-109v973h-180z" />
<glyph unicode="g" horiz-adv-x="931" d="M0 973v84h973v-84h-205v-264h-487q-18 0 -27 -11l-8 -18l8 -35q6 -20 27 -43l8 -16l57 -72l14 -8l64 12l61 8l47 4q137 0 222 -50q82 -50 82 -158q1 -10 1 -20q0 -60 -44 -101l-43 -33l-15 -10l-80 61l11 4l10 6l8 4q27 31 33 44.5t10 44.5q0 75 -53 101q-27 13 -66 19 l-84 9q-136 0 -194 -56q-66 -53 -66 -129.5t55 -130.5q53 -47 170 -84l175 -43q20 -2 42.5 -2t24.5 4l-39 -78q-10 -8 -33.5 -8t-59.5 6q-75 14 -181 54q-266 87 -266 278q0 78 71 152l49 49l-43 45l-26 35q-53 68 -61.5 108.5t-10.5 55.5l6 36q6 14 23 29l30 16l37 7l432 2 v176h-659z" />
<glyph unicode="h" horiz-adv-x="440" d="M-428 1223q0 51 16 99t51 90q71 85 179 85q148 0 313 -221l59 -92l74 -129l195 2v-84h-172v-973h-107v973h-180v84h156q3 3 3 10q0 45 -165 236q-102 114 -172 114q-69 0 -102 -51q-37 -55 -37 -103.5t5 -65.5q14 -48 25 -71l27 -51l14 -20l-119 2l-24 33l-21 40l-14 46z " />
<glyph unicode="i" horiz-adv-x="911" d="M0 973v84h940v-84h-168v-973h-108v408l-37 -31l-27 -19q-73 -49 -146 -49q-132 0 -214 82q-27 30 -60 92q-20 55 -20 111v379h-160zM264 580q0 -96 62 -146q23 -18 53 -35q18 -6 62 -8h10q38 0 66 13q55 24 87 55l27 28l33 43v443h-400v-393z" />
<glyph unicode="j" horiz-adv-x="761" d="M-41 973v84h838v-84h-164v-268q0 -132 -139 -189q-43 -14 -82 -14l-39 2q-25 4 -37 10l147 -211l58 -72l106 -116l45 -45l-76 -70q-64 27 -313 375l-63 94l-103 172l-41 74l84 61l84 -143q24 -51 117 -51q72 0 97.5 25.5t33.5 47t12 60.5v258h-565z" />
<glyph unicode="k" horiz-adv-x="440" d="M-20 973v84h507v-84h-198v-973h-109v973h-200z" />
<glyph unicode="l" horiz-adv-x="1204" d="M-20 973v84h1249v-84h-168v-973h-109v532h-288l-72 84h360v357h-385v-342q-4 -14 -4 -21l-12 -45q-20 -58 -111 -80q-16 0 -24 -4l-21 -2l-22 2q-12 0 -29 8l127 -192l55 -72l99 -112l43 -43l-84 -70q-25 10 -99 104l-188 271l-61 92l-132 223l89 58l59 -115 q30 -72 121 -72l45 6q18 6 26 21l15 30l4 44l-2 30v281h-481z" />
<glyph unicode="m" horiz-adv-x="1107" d="M-20 973v84h1148v-84h-288l41 -60q36 -62 43 -139q0 -115 -109 -188q35 -16 41 -19.5t34 -26t50 -59.5q47 -76 47 -154.5t-20 -125.5t-62.5 -85t-97.5 -63q-53 -18 -127 -18q-199 0 -406 311q-49 80 -94 176l-55 123q-14 43 -12 53l92 58l63 -166q40 -96 82 -169 q104 -184 213 -261q64 -41 125 -41q99 0 154 67q35 55 35 120t-11.5 96.5t-17.5 44t-28 41.5q-52 65 -140 65l-188 2l-39 88h223l59 6q88 20 88 133q0 56 -53 129l-53 60z" />
<glyph unicode="n" horiz-adv-x="1007" d="M0 973v84h1028v-84h-223v-277h-377q-55 0 -102 -49l-33 -51q-6 -16 -10 -55q0 -191 178 -254l74 -17l106 -8q-2 10 -4 12v11q0 20 -4 30l-2 23q0 31 4 45l18 41q24 39 86 39q20 0 37 -8q37 -18 55 -64l9 -41q0 -63 -39 -102l-17 -15l-24 -16l51 -113l35 -59l35 -47 l14 -16l16 -23h-135l-112 229l-17 -4h-14q-164 0 -261 47.5t-147 122.5q-45 80 -45 185q0 97 60 168q56 75 145 75l303 2v189h-688z" />
<glyph unicode="o" horiz-adv-x="911" d="M-20 973v84h976v-84h-188v-973h-109v319l-92 -65l-63 -23l-64 -6q-125 0 -213 80q-45 41 -70.5 93t-25.5 112.5t19.5 110t60.5 95.5q81 91 197 91l36 -2l41 -6l35 -8q18 0 29 -5l22 -106l-22 12l-19 8l-55 17l-55 6q-45 0 -75 -12q-55 -22 -89 -109q-10 -35 -10 -75 t12 -79q26 -85 96 -120q46 -15 105 -15q72 16 100 37q71 38 100 88v535h-679z" />
<glyph unicode="p" horiz-adv-x="1107" d="M0 973v84h1116v-84h-143v-973h-109v408q-6 -14 -33 -41l-73 -60q-128 -90 -238 -90q-105 0 -170 59q-31 25 -53 70q-16 45 -16 91t7 69q15 48 41 84q57 77 107 104l-336 2v84h625v-84h-137l-60 -41l-41 -32q-100 -88 -100 -177q0 -107 80 -137l57 -8q119 0 242 115 q100 94 98 127v430h-864z" />
<glyph unicode="q" horiz-adv-x="10" d="M-778 -285l69 88l134 -94q150 -94 266 -94q86 0 157 47q70 46 70 123q-4 27 -14 51l-31 41q-16 18 -37 31l-47 8q-52 0 -106 -39l-45 -45l-82 72l24 22l53 31q81 45 148 45t106 -14q81 -27 119 -115q14 -47 14 -96q0 -124 -110 -193q-96 -59 -223 -59q-105 0 -203 43 t-120 53t-56 33q-59 31 -86 61z" />
<glyph unicode="r" horiz-adv-x="1007" d="M-20 973v84h1064v-84h-188v-973h-108v680h-383q-35 0 -64 -12q-46 -10 -70 -70l-8 -51q0 -142 86 -279q121 -194 195 -194l-72 -74q-7 0 -26 16l-58 56l-84 94q-28 39 -65 100q-39 72 -62 142q-20 78 -20 133t10 88t37 71q25 31 57 50q40 16 78 16l449 2v205h-768z" />
<glyph unicode="s" horiz-adv-x="6" d="M-668 1495l72 78l420 -516h-68z" />
<glyph unicode="t" horiz-adv-x="1304" d="M0 973v84h1321v-84h-168v-973h-109v633h-317q10 -6 27 -41l37 -90l20 -72l8 -55q0 -55 -14 -96q-29 -85 -123 -129q-45 -16 -110 -16h-4q-133 0 -251 145q-73 82 -149 272l-39 106l-8 45l88 66v-18q0 -11 4 -25l37 -115q47 -139 111.5 -231.5t117.5 -129t96.5 -36.5 t67 11.5t39.5 33.5q35 47 35 105q0 103 -78 235l-53 78q-16 25 -31 35l489 2v260h-1044z" />
<glyph unicode="u" horiz-adv-x="1007" d="M0 973v84h1036v-84h-168v-973h-108v608h-383v-176l-2 -29q-2 -12 -4 -14l-17 -14l-22 -4q-12 0 -45 26l-76 80q-82 99 -90 146q0 23 6 35q9 18 45 30l25 2l563 2v281h-760z" />
<glyph unicode="v" horiz-adv-x="1179" d="M8 489l84 56l64 -113l51 -76q68 -92 135 -141q68 -45 113 -45t71.5 12.5t55.5 44.5q47 65 47 120.5t-17 90.5q-10 35 -43 66q-29 23 -69.5 38t-79.5 15h-35q-23 0 -53 -12l-13 -2l-34 78q49 0 90 10t80 35q86 57 86 147q0 37 -9 61q-12 56 -70 82q-32 15 -69 15t-69 -15 q-49 -22 -91 -57l-73 -74l-80 64q3 8 22 29l68 55q57 41 118 61t112 20h3q97 0 170 -75q64 -68 64 -166q0 -131 -117 -195l29 -6q18 -6 24 -10l35 -16l19 -11l20 -8l23 -12l69 -25l54 -4l41 2l71 19l27 10v416h-197v84h449v-84h-148v-973h-104v465l-31 -8l-57 -11h-17l-36 3 l-64 18l-22 10l6 -20l6 -15l10 -47l4 -45q0 -68 -18 -116t-64 -84q-68 -60 -184 -60q-160 0 -324 189q-63 76 -102 133q-31 53 -31 77z" />
<glyph unicode="w" horiz-adv-x="4" d="M-463 -227q0 89 74 161q80 67 176 67q61 0 129 -27q101 -40 211 -166q43 -50 82 -115l59 -109l-92 -49q0 36 -46 104t-58 85q-66 90 -138 139q-74 45 -128 45t-75.5 -9.5t-38.5 -32.5q-29 -36 -36 -99q0 -89 72 -121q16 -6 51 -11l33 5l34 14l15 8l16 10l55 -84l-26 -12 q-33 -12 -66 -18l-65 -7q-97 0 -167 64q-71 65 -71 158z" />
<glyph unicode="x" horiz-adv-x="1071" d="M0 973v84h1098v-84h-230v-973h-108v973h-324v-584q-4 -20 -16 -31l-29 -8q-23 0 -63 25q-31 23 -82 74q-90 102 -90 157q0 14 4 21l12 10l18 2l23 2l119 2v330h-332z" />
<glyph unicode="y" horiz-adv-x="1232" d="M0 973v84h1249v-84h-170v-973h-106v621l-53 -15l-64 -31q-20 -14 -27.5 -19t-27.5 -26l-35 -41l-31 -49l-30 -59l-17 -47l-88 51l4 25l51 90l13 30q-4 12 -30 34t-60 38l-70 29q-20 6 -56.5 8t-47.5 0q-47 -9 -97 -57q-55 -71 -55 -141.5t43 -141.5q43 -63 133 -127 l72 -45l104 -49l-51 -86q-105 0 -277 178q-124 128 -124 276q0 124 81 201q86 82 220 82q55 0 102 -16q49 -12 94 -45l56 -43q18 -14 20 -27l35 27l67 45l47 16l52 14l20 2l27 5v266h-973z" />
<glyph unicode="z" horiz-adv-x="10" d="M-801 80l570 356v-84l-500 -352z" />
<glyph unicode="{" horiz-adv-x="641" d="M24 450q16 59 89 132l92 67q-16 8 -41 33l-41 63q-16 27 -27 62l-8 61q0 86 60 134q63 51 153 51q49 0 86 -15q145 -42 145 -182q0 -72 -71 -143l-31 -27l-43 -29l19 -8l18 -2l63 -10l72 -2l82 2q33 0 64 10l59 21q35 13 67 34v-94l-71 -33l-58 -16l-63 -10l-80 -2l-78 6 l-98 20l-43 11l-55 18q-12 0 -33 -14l-47 -37q-76 -72 -76 -154q0 -33 2 -47t17.5 -42.5t50.5 -49.5l55 -22l72 -7h41l10 4l-4 9v32l6 50l18 32q14 14 29 19l39 8q27 0 43 -6t35 -27l20 -35l8 -41l-6 -34l-14 -27q-6 -10 -25 -20l-34 -11l22 -39l59 -59l43 -31l-88 -61 l-18 14l-41 41l-16 25l-13 18l-20 39l-8 25l-21 -9l-14 -2l-37 -8l-29 -2q-125 0 -211 74q-33 33 -59 86q-34 92 -17 157zM193 864q0 -66 47 -123l18 -20l31 -23q25 8 39 17l28 16q68 52 68 123q0 33 -8 50t-27 34l-39 20l-43 9q-27 0 -45 -9l-37 -18q-16 -12 -24 -33z M600 973v84h51v-84h-51z" />
<glyph unicode="|" horiz-adv-x="1204" d="M0 973v84h1217v-84h-150v-973h-106v297q-22 -52 -207 -139q-68 -31 -118 -43q-86 -21 -146 -21q-137 0 -209 78q-27 27 -48 68q-14 42 -14 78t7 67q7 29 36 66l19 18q-40 0 -103 65q-49 51 -49 116t21.5 97.5t68.5 55.5l37 8l55 6l264 2v154h-575zM231 653q0 -40 33 -82 l43 -41q18 -12 37 -12l14 4l66 23l37 6h76l28 -2l31 -2l37 -82l-12 -2h-70l-12 2q-68 0 -109 -9t-62 -30q-44 -41 -44 -88q0 -81 55 -121q34 -21 59 -31l70 -8q141 0 303 109q125 74 150 114v572h-285v-242h-332q-33 0 -47 -4q-39 0 -57 -29z" />
<glyph unicode="}" horiz-adv-x="1007" d="M0 973v84h1004v-84h-220v-281h-399q-33 0 -58.5 -8t-43.5 -27q-18 -14 -27 -45l-8 -65q0 -159 180 -234q54 -16 113 -16l20 2l31 4l24 4l13 2l-2 19q0 16 10 37q14 53 43 82.5t60 29.5t46 -7q34 -16 48 -52l6 -37q0 -49 -22.5 -84t-41 -45t-49.5 -14l8 -37l21 -84l22 -70 l8 -20l13 -39l10 -43l4 -35q0 -18 -4 -29l-10 -22l-19 -17l-28 -10l-60 176l-30 -26q-2 -2 -28 -20q-64 -43 -124 -61q-86 -26 -135 -26t-94 17q-109 43 -156 128q-36 82 -9 154q13 33 42 62q55 53 118 61l-40 35l-27 33q-31 39 -53 88q-17 53 -17 101t15 89q12 45 41 72 t56 37q49 18 93 18l332 2v201h-676zM213 103q0 -36 11 -57q28 -50 87 -73q18 -6 56.5 -8t54.5 0t49 15q51 14 109 45l65 41q27 20 31 28l-33 133l-25 -6l-24 -2l-27 -2h-22l-35 2l-113 12l-41 5l-59 -7q-51 -15 -74 -63q-10 -27 -10 -63z" />
<glyph unicode="~" horiz-adv-x="10" d="M-315 -121l92 45l223 -297l-43 -47z" />
<glyph horiz-adv-x="2048" />
<glyph horiz-adv-x="2048" />
<glyph horiz-adv-x="2048" />
<glyph horiz-adv-x="2048" />
<glyph horiz-adv-x="2048" />
<glyph horiz-adv-x="2048" />
<glyph horiz-adv-x="2048" />
<glyph horiz-adv-x="2048" />
<glyph unicode="&#xa1;" horiz-adv-x="24" d="M-690 1470l106 3q0 -94 68 -158q65 -55 156 -55q142 0 202 118q16 43 17 92l104 3q0 -115 -95 -208q-40 -40 -97 -63q-66 -20 -133 -20q-205 0 -290 166q-26 49 -38 122zM-424 1432v112h121v-112h-121z" />
<glyph unicode="&#xa2;" horiz-adv-x="6" d="M-1077 1495l71 78l420 -516h-67z" />
<glyph unicode="&#xa3;" horiz-adv-x="1294" d="M0 973v84h1368v-84h-199v-973h-108v973h-537v-293q0 -92 -84 -135l-73 -21l-95 -6l50 -108l49 -76q68 -88 159 -139q97 -45 179 -45q152 0 256 79l90 93v-107q-44 -55 -140 -106l-96 -33q-55 -10 -109 -10q-153 0 -266 71q-68 43 -133 121q-59 78 -118 193l-35 81 l-58 166l93 50l34 -115l13 -12l12 -9l33 -14l39 -4l41 6q39 13 49 47l6 39v287h-420zM713 502q-56 150 56 252q75 67 171 67l45 -6l47 -16l25 -74l-47 12l-52 6q-35 0 -61 -10q-56 -12 -86 -69q-10 -27 -10 -66l6 -61q11 -47 49 -68l39 -8q49 0 86 31l41 36l33 50v-121 l-6 -27l-9 -16q-33 -43 -95 -43t-104 15q-81 29 -128 116zM715 233l241 162l17 -78l-174 -143z" />
<glyph unicode="&#xa4;" horiz-adv-x="450" d="M33 88h270v-53h-197v-144l29 -32l27 6l16 2l19 2h28l45 -64l-67 -6l-60 -18q-31 -14 -42 -28.5t-15 -37.5v-8q2 -10 4 -12l4 -8q18 -24 43 -35l45 -8q59 0 110 24q78 39 83 53v-88l-21 -12l-37 -18l-47 -17l-39 -10q-75 0 -133 54q-49 45 -57 120l2 29l12 26q6 14 21 25 l30 18l-73 60v180z" />
<glyph unicode="&#xa5;" horiz-adv-x="1179" d="M0 973v84h1192v-84h-148v-973h-108v449l-41 -13l-41 -2l-35 2l-33 6q-25 4 -36 11l-33 16q-18 -75 -35 -113l-16 -49q-41 -70 -111 -114q-68 -39 -139 -39q-152 0 -334 114q-25 18 -27 27l70 78q4 -12 27 -31l63 -43q105 -64 168 -65t101 17.5t68 57.5t40 74 q18 63 18 109.5t-12 88.5t-38 77q-53 75 -152 75q-18 0 -41 -8l-45 -18l-46 -29l-71 82l39 14l28 14l72 25l55 8q160 0 252 -137q16 -23 31 -57l31 -80l18 -8l51 -19l29 -2q75 0 125 33v422h-936z" />
<glyph unicode="&#xa6;" />
<glyph unicode="&#xa7;" horiz-adv-x="450" d="M33 88h270v-53h-197v-144l29 -32l27 6l16 2l19 2h28l45 -64l-67 -6l-60 -18q-31 -14 -42 -28.5t-15 -37.5v-8q2 -10 4 -12l4 -8q18 -24 43 -35l45 -8q59 0 110 24q78 39 83 53v-88l-21 -12l-37 -18l-47 -17l-39 -10q-75 0 -133 54q-49 45 -57 120l2 29l12 26q6 14 21 25 l30 18l-73 60v180z" />
<glyph unicode="&#xa8;" horiz-adv-x="440" d="M-260 1495l76 78l415 -516h205v-84h-147v-973h-109v973h-180v84h135z" />
<glyph unicode="&#xa9;" horiz-adv-x="440" d="M-416 1327l76 84l395 -354h101l-344 463l96 53l323 -516h205v-84h-147v-973h-109v973h-180v84z" />
<glyph unicode="&#xaa;" horiz-adv-x="24" d="M-911 -293l340 369h110l322 -369h-121l-252 313l-276 -313h-123z" />
<glyph unicode="&#xab;" horiz-adv-x="663" d="M-4 973v84h760v-84h-760zM113 625q10 4 32.5 17.5t30.5 16.5l178 74l103 37q43 12 67.5 12t71.5 -32.5t111 -100.5l141 -143v-119l-496 -295l-63 92l508 265l-117 112q-59 57 -105.5 87t-63.5 30t-35 -2q-54 -6 -163 -62l-137 -71z" />
<glyph unicode="&#xac;" />
<glyph unicode="&#xad;" />
<glyph unicode="&#xae;" horiz-adv-x="440" d="M-260 1495l76 78l415 -516h205v-84h-147v-973h-109v973h-180v84h135z" />
<glyph unicode="&#xaf;" />
<glyph unicode="&#xb0;" />
<glyph unicode="&#xb1;" horiz-adv-x="24" d="M-383 1373q0 46 15.5 78t49.5 57q69 51 158 51l60 -7l55 -18l-2 -82l-14 4l-15 6l-39 8l-43 5q-87 0 -122 -83q-11 -28 -11 -61t2 -47q8 -59 64 -143l28 -39l39 -47l-78 2q-14 9 -28 28l-47 74q-8 14 -26.5 54t-27.5 59q-18 55 -18 101zM-176 1233v115h125v-115h-125z " />
<glyph unicode="&#xb2;" />
<glyph unicode="&#xb3;" horiz-adv-x="1204" d="M0 973v84h1200v-84h-276v-268h-437l-12 -17l-2 -14l2 -23q4 -16 10 -24l17 -33l30 -43l31 -37l31 -25l31 -18l30 -4h13l149 43l51 12l35 4q48 0 82 -55l16 -51l7 -58q0 -78 -22 -137q-43 -119 -169 -170q-61 -20 -131 -20q-142 0 -293 119q-49 39 -112 98 q-51 55 -105 123l-63 86l-21 41l80 78q2 -8 3 -13.5t17 -32.5q24 -41 56 -81q53 -79 96 -123l100 -97q141 -114 248 -114q92 0 152 65q59 62 59 174q0 68 -53 68q-16 0 -43 -7q-48 -12 -84 -30l-43 -14l-29 -4q-104 0 -196 125q-99 122 -99 206l6 39q6 18 23 27l35 14l45 4 l354 2v185h-819zM1044 571v121h127v-121h-127z" />
<glyph unicode="&#xb4;" horiz-adv-x="1179" d="M0 973v84h1192v-84h-148v-973h-108v449l-41 -13l-41 -2l-35 2l-33 6q-25 4 -36 11l-33 16q-18 -75 -35 -113l-16 -49q-41 -70 -111 -114q-68 -39 -139 -39q-152 0 -334 114q-25 18 -27 27l70 78q4 -12 27 -31l63 -43q105 -64 168 -65t101 17.5t68 57.5t40 74 q18 63 18 109.5t-12 88.5t-38 77q-53 75 -152 75q-18 0 -41 -8l-45 -18l-46 -29l-71 82l39 14l28 14l72 25l55 8q160 0 252 -137q16 -23 31 -57l31 -80l18 -8l51 -19l29 -2q75 0 125 33v422h-936z" />
<glyph unicode="&#xb5;" />
<glyph unicode="&#xb6;" horiz-adv-x="860" d="M0 973v84h856v-84h-135v-314l41 35l57 39l62 31l51 10v-90l-80 -20q-33 -12 -55 -39q-25 -23 -45 -60l-15 -30l-16 -41v-494h-109v408q-18 -23 -45 -37l-47 -23l-51 -14l-51 -4q-39 0 -55.5 2t-51.5 16t-79 52t-58 74q-27 68 -27 124v375h-147zM252 584q0 -71 16.5 -98 t30.5 -41.5t43 -26.5l66 -8q119 0 183 104q15 25 21 55v404h-360v-389z" />
<glyph unicode="&#xb7;" horiz-adv-x="739" d="M55 190l74 74q0 -12 29 -41l82 -67q127 -99 221 -99h39q71 17 105 37.5t54.5 59.5t20.5 76q0 80 -143 208l-136 111l-131 115q-74 66 -109.5 121.5t-35.5 99t13.5 74t40 52t61.5 31.5q41 13 79 13l429 2v-80l-433 -4q-18 0 -34 -8l-31 -19l-23 -28l-8 -31q0 -45 148 -168 l276 -232q150 -142 150 -237q0 -127 -95 -197q-82 -69 -229 -69q-51 0 -104 13t-111 48q-173 92 -199 145z" />
<glyph unicode="&#xb8;" horiz-adv-x="587" d="M0 973v84h596v-84h-176l41 -55q33 -51 37 -81t5 -71t-28 -92t-90 -82l-51 -17l-70 -14l6 -18l9 -17l6 -14q37 -74 99 -109.5t118 -35.5q186 0 278 163v-145q-26 -27 -57 -43l-64 -29l-34 -10l-33 -8q-25 0 -37 -4l-33 -2q-79 0 -141.5 22.5t-120 72.5t-92.5 120 q-29 70 -29 149l54 -12h20l70 6q108 21 108 148q0 33 -12 60.5t-39 66.5l-51 49z" />
<glyph unicode="&#xb9;" />
<glyph unicode="&#xba;" horiz-adv-x="911" d="M0 973v84h911v-84h-143v-264h-487q-18 0 -29 -11l-8 -20l8 -33q12 -25 29 -43l16 -27l25 -28l4 -8l10 -9l596 2v-83h-463q-47 0 -80 -17q-31 -10 -65 -43q-31 -25 -41 -53q-19 -53 -19 -86q0 -135 238 -197q82 -10 119 -16l118 -14l-34 -74l-46 -2q-50 0 -134.5 17.5 t-116.5 29.5q-148 39 -222 143q-89 145 37 277l49 49l-43 45l-26 35q-53 68 -61.5 108.5t-10.5 55.5l6 36q6 14 23 29l30 16l37 7l432 2v176h-659z" />
<glyph unicode="&#xbb;" horiz-adv-x="1132" d="M29 479v88h1050v-88h-1050zM492 88v139h141v-139h-141zM492 827v142h141v-142h-141z" />
<glyph unicode="&#xbc;" horiz-adv-x="491" d="M164 537q0 244 78 452q48 147 147 311l55 84q16 25 27 29l121 2q-115 -120 -219 -375l-45 -129q-6 -25 -16.5 -61.5t-14.5 -65.5l-18 -129l-7 -129q0 -310 150 -610q35 -76 86 -156l84 -120h-121l-22 30l-56 90l-82 156q-88 190 -127 393q-20 123 -20 228z" />
<glyph unicode="&#xbd;" horiz-adv-x="516" d="M16 -360l82 120q25 38 84 154l70 158q84 236 84 454q0 244 -82 469q-75 194 -154 308l-59 81q-8 12 -25 29l115 2l25 -31l55 -84q63 -96 141 -284q39 -94 63.5 -236t24.5 -254t-15 -200q-24 -139 -65 -246q-27 -84 -55 -142q-60 -124 -94 -176l-57 -92q-17 -27 -23 -30 h-115z" />
<glyph unicode="&#xbe;" horiz-adv-x="1155" d="M37 276v89h1050v-89h-1050zM37 680v88h1050v-88h-1050z" />
<glyph unicode="&#xbf;" horiz-adv-x="415" d="M68 551l20 16l55 43l25 31l16 31l15 41l10 41l4 32v431q0 85 63 168q62 83 162 83l27 -4l35 -6l168 2v-63h-164q-75 0 -142 -53q-30 -25 -49 -62q-14 -37 -14 -72v-422l-4 -34q0 -20 -6 -45q-9 -37 -19 -54l-22 -37l-109 -65l21 -16q41 -23 53 -37l27 -23l8 -14l12 -17 l19 -51l14 -55l6 -43v-418q0 -122 121 -162q42 -10 84 -10h164v-80h-168q-66 0 -115 17q-111 28 -151 122q-21 52 -21 109v428q0 72 -30.5 125t-55.5 78t-59 45z" />
<glyph unicode="&#xc0;" horiz-adv-x="788" d="M104 -293h160q93 0 146 43q27 16 41 53t14 76v420l4 41l16 53l21 51l26 37l25 21l35 26l37 23l-105 70l-22 26l-17 41l-16 53l-4 45v426q0 73 -62 129q-67 54 -139 54l-160 2v63h164l43 8h19q92 0 158 -77q71 -82 71 -177v-426l2 -38q0 -20 8 -37l13 -37l16 -33l10 -16 l31 -31l37 -29l24 -16q-90 -45 -133 -174l-8 -76v-426q0 -125 -88 -186q-74 -62 -203 -62h-164v80z" />
<glyph unicode="&#xc1;" horiz-adv-x="911" d="M0 973v84h911v-84h-139v-973h-108v444l-512 -444l-80 72l344 272q-119 0 -184 77q-33 40 -56 93q-16 54 -16 113v346h-160zM264 612q0 -95 62 -145q23 -18 53 -35q18 -6 52 -8t45 1t30 13q57 31 82 51l71 68v416h-395v-361z" />
<glyph unicode="&#xc2;" />
<glyph unicode="&#xc3;" horiz-adv-x="911" d="M0 973v84h586l-41 59l-39 74l-39 98q-12 47 -12 89q0 80 65 132q70 50 158 50l59 -7l56 -18v-82l-17 4l-14 6l-41 8l-41 5q-89 0 -125 -84l-8 -62q0 -55 16.5 -95t28.5 -65l33 -57l39 -57l260 2v-84h-232v-268h-428l-12 -19l2 -29l8 -22l19 -31l30 -39l60 -65l32 -27 l29 -6q63 0 154 37l49 14l41 4q75 0 104 -96l8 -55q0 -72 -19 -126q-30 -85 -111 -147q-27 -20 -52 -37q-53 -27 -98 -26l22 -25l21 -14l82 -72l139 -88l-55 -88l-53 35q-35 20 -62 47l-104 90l-90 86l-17 21h-72q-20 4 -39 6q-35 4 -71.5 17t-54.5 36q-29 40 -29 92l6 35 q6 18 21 33l28 20l39 8q71 0 150 -79l63 -80q35 0 71 8t52 18q125 58 125 197l-2 39q0 23 -4 31q0 12 -10 18l-21 8l-33 -8l-67 -25l-78 -22l-57 -8q-37 0 -84.5 32.5t-94.5 96.5q-98 135 -98 198l6 31l23 29l33 20l34 8l357 2v185h-584z" />
<glyph unicode="&#xc4;" horiz-adv-x="1097" d="M0 973v84h1122v-84h-198v-973h-109v313l-72 -41l-65 -28l-96 -31q-47 -10 -76 -10q-73 0 -117.5 15t-89.5 48t-70 76q-20 45 -20 87q0 81 57 146l23 23l35 29l-50 20l-32 21q-82 58 -82 149l4 41l14 47l21 41l20 25zM266 830q-4 -64 51 -107q18 -16 45 -29l50 -8l176 2 l37 -76h-113q-31 0 -65 -12t-65 -34q-67 -50 -67 -132q0 -98 121 -139l76 -8q90 0 170 45q32 12 63 35l70 47v559h-467l-41 -39l-33 -53q-6 -16 -8 -51z" />
<glyph unicode="&#xc5;" horiz-adv-x="1376" d="M0 973v84h1397v-84h-649l40 -60q31 -53 36 -85.5t7 -53.5q0 -126 -114 -192l59 -41l39 -43l4 -6l8 -7l68 70l43 31l43 22l41 15l43 4q88 0 158 -70q65 -73 65 -164q0 -69 -17.5 -112t-42.5 -95q-53 -109 -116 -172l-96 58l86 104q86 120 86 221l-6 54l-19 45 q-29 51 -102 51q-59 0 -135 -76l-25 -33l-29 -45v-31l2 -14q0 -128 -43 -192q-69 -121 -235 -121q-160 0 -285 160q-39 53 -84 133q-33 66 -65 164l-35 114q-8 43 -6 51l88 68l37 -158q57 -202 121 -288q49 -76 104 -117q59 -39 115 -39q108 0 149 61l21 54l8 75 q0 49 -10 80q-6 39 -27 68q-38 69 -115 69l-159 2l-41 89h188l37 12q45 17 67.5 61.5t22.5 80.5q0 61 -53 136l-53 60z" />
<glyph unicode="&#xc6;" horiz-adv-x="440" d="M0 973v84h188l-6 6l-6 27l-18 67l-6 57q0 127 85 212q92 92 234 92q86 0 174 -35q90 -31 193 -99q31 -16 75 -55q39 -29 95 -80l-9 17l-2 14l-8 43l-2 51q0 86 61 134q62 51 152 51l66 -7l57 -18v-82l-16 4l-13 6l-39 8l-38 5q-61 0 -101.5 -40.5t-40.5 -88.5t2 -62 t15 -47q26 -61 53 -96l29 -39l43 -47l-121 2l-52 45l-49 49q-74 67 -121 98l-122 82q-166 99 -287 99q-47 0 -82 -17q-75 -23 -117 -119q-14 -47 -14 -96l2 -41l12 -45l15 -41l8 -16l147 2v-84h-147v-973h-109v973h-180z" />
<glyph unicode="&#xc7;" horiz-adv-x="442" d="M0 973v84h186l-8 18l-24 107l-2 32q0 127 85 212q92 92 234 92q152 0 350 -119q72 -43 144 -101l147 -122l59 -62l62 -59l-137 2l-52 45l-49 49q-74 67 -121 98l-122 82q-166 99 -287 99q-47 0 -82 -17q-75 -23 -117 -119q-14 -47 -14 -96l2 -41l10 -47l12 -39l9 -16 l178 2v-84h-174v-973h-109v973h-180zM1137 1255v134h141v-134h-141z" />
<glyph unicode="&#xc8;" horiz-adv-x="440" d="M-428 1223q0 51 16 99t51 90q71 85 179 85q148 0 313 -221l59 -92l74 -129l195 2v-84h-172v-973h-107v973h-180v84h156q27 27 -162 246q-102 114 -172 114q-69 0 -102 -51q-37 -55 -37 -103.5t5 -65.5q14 -48 25 -71l27 -51l14 -20l-119 2l-24 33l-21 40l-14 46z M276 1184v133h142v-133h-142z" />
<glyph unicode="&#xc9;" horiz-adv-x="440" d="M0 973v84h188l-6 6l-6 27l-18 67l-6 57q0 127 85 212q92 92 234 92q86 0 174 -35q90 -31 193 -99q31 -16 75 -55q39 -29 95 -80l-9 17l-2 14l-8 43l-2 51q0 86 61 134q62 51 152 51l66 -7l57 -18v-82l-16 4l-13 6l-39 8l-38 5q-61 0 -101.5 -40.5t-40.5 -88.5t2 -62 t15 -47q26 -61 53 -96l29 -39l43 -47l-121 2l-52 45l-49 49q-74 67 -121 98l-122 82q-166 99 -287 99q-47 0 -82 -17q-75 -23 -117 -119q-14 -47 -14 -96l2 -41l12 -45l15 -41l8 -16l147 2v-84h-147v-973h-109v973h-180zM1196 1233v115h121v-115h-121z" />
<glyph unicode="&#xca;" horiz-adv-x="440" d="M-428 1223q0 51 16 99t51 90q71 85 179 85q148 0 313 -221l59 -92l74 -129l195 2v-84h-172v-973h-107v973h-180v84h156q27 27 -162 246q-102 114 -172 114q-69 0 -102 -51q-37 -55 -37 -103.5t5 -65.5q14 -48 25 -71l27 -51l14 -20l-119 2l-24 33l-21 40l-14 46z M158 1415q0 83 65 135q69 49 158 49l59 -6l56 -18v-82l-17 4l-14 6l-41 8l-41 5q-89 0 -125 -84l-8 -62q0 -80 65 -188l27 -39l41 -47l-76 2q-14 0 -31 28l-47 74q-71 113 -71 215z" />
<glyph unicode="&#xcb;" horiz-adv-x="540" d="M16 868q0 41 14.5 79t41.5 67q55 59 151 59q75 0 131 -45q58 -45 58 -115v-61h-93v63q0 37 -22.5 59.5t-59.5 22.5t-54 -10t-31 -29l-21 -40l-6 -48q0 -80 38 -133t64 -80q25 -18 49 -22l70 20l80 9l37 -2l41 -5l45 -77l-137 -7q-49 0 -80 -10q-127 -29 -127 -149 q0 -90 108 -131l64 -9q121 0 252 97l45 41l53 57v-109q0 -13 -29 -36l-73 -52q-83 -56 -198 -76q-38 -6 -80 -6t-86 15.5t-86 47.5q-83 63 -83 157q0 68 51 133l21 20l33 27q-33 15 -62 46q-55 60 -71.5 89t-27.5 55q-20 47 -20 88zM508 973v84h41v-84h-41z" />
<glyph unicode="&#xcc;" horiz-adv-x="788" d="M0 973v84h801v-84h-164v-213h-334l-33 -6l-22 -2q-51 -13 -55 -74q0 -50 40 -94l27 -25l21 -8l92 29l8 -2l10 2h17l14 2h31l8 -2h10l18 -2h15l49 -86h-18l-21 4h-12l-13 2h-49t-51 -9l-57 -18q-29 -16 -51 -49q-40 -83 3 -165q15 -30 50 -52l57 -23l72 -8l35 2l22 6l-4 8 v39q0 29 4 43l15 35q12 20 32 33q25 10 51 10t41 -7q34 -16 48 -56l6 -41l-6 -41l-19 -35q-14 -16 -29 -25l-34 -8l106 -184l-90 -49l-92 209l-8 -7l-19 -2l-28 -4h-31q-207 0 -281 127q-26 52 -26 102t4 62l14 41l33 49l12 21l-39 26l-26 21q-50 50 -58 79t-8 61t11.5 61.5 t32 45t34.5 21.5t34 13q25 8 60 8l272 2v133h-532z" />
<glyph unicode="&#xcd;" horiz-adv-x="983" d="M0 973v84h999v-84h-219v-213h-432q-96 0 -96 -111q0 -88 100 -147q35 -20 94 -41q62 -15 113 -15t95 12q69 17 112 44l35 22l39 33l80 -61l-76 -52l-64 -32v-232h-411q-23 0 -41 -10q-14 -4 -35 -25l-23 -34l-6 -41q0 -49 25.5 -85t87.5 -69q41 -18 81 -28 q57 -13 98.5 -13t65.5 5q41 8 83 26l94 43q37 18 53 35l72 -64l-62 -43l-86 -43q-97 -39 -185 -39t-113 3t-81.5 15.5t-116 49.5t-90.5 92q-31 49 -30.5 102.5t11.5 84t33 54.5q46 54 120 54l356 2v133l-47 -10l-33 -2h-41q-162 0 -276 61q-66 37 -103 90q-33 59 -33 114.5 t12.5 91.5t38.5 58q58 46 138 46l344 2v137h-680z" />
<glyph unicode="&#xce;" horiz-adv-x="983" d="M0 973v84h999v-84h-219v-213h-432q-47 0 -75.5 -29t-28.5 -77t20 -89q20 -33 65.5 -62.5t88.5 -40.5q78 -20 133 -20t99 10q76 19 112 44l33 20l36 35l76 -64l-63 -43l-64 -32v-232h-465q-38 0 -71 -35l-23 -34l-8 -41q0 -49 27 -90q57 -73 197 -105q44 -10 108 -10l84 6 l69 18q82 28 82 103q0 38 -28 76l-31 18l67 66l29 -35l23 -23q45 -52 45 -102.5t-29 -93.5q-44 -75 -178 -100q-65 -13 -142 -13t-156 19.5t-142 54.5q-134 74 -134 215q0 67 50 120q24 27 53 42q37 14 65 14l408 2v133q-39 -12 -78 -18l-78 -5q-151 0 -264 68 q-121 72 -121 219q0 49 15 80q20 60 101 91q38 14 81 14l344 2v137h-680z" />
<glyph unicode="&#xcf;" horiz-adv-x="1079" d="M0 973v84h1075v-84h-164v-234h-458l-17 -6l-4 -10l2 -12l4 -9l25 -30l41 -41l28 -25l31 -16l35 -8l39 -2l35 2l137 20l51 4q108 0 125 -78l6 -55q0 -115 -119 -186q-26 -16 -104 -41q-55 -12 -117 -13h-57q-18 4 -27 5l-75 16l-29 8l-31 12l31 -51l26 -35q23 -31 64 -65 q27 -16 55 -21l43 2l162 33l59 8q27 0 46 -10q40 -11 71 -63q6 -14 10 -45q0 -59 -25.5 -107.5t-78.5 -82.5t-99 -45q-78 -19 -163 -19q-193 0 -385 129l-74 55l-86 74l64 73q72 -72 108.5 -94t42.5 -26q190 -123 352 -123q67 0 107.5 18.5t67.5 34.5q59 36 67 100 q-4 27 -12 35l-19 8l-26 4l-201 -41l-51 -2q-79 0 -164 79q-86 80 -86 173v9l2 12v8l4 10l-133 88l-100 72l-31 25l59 86l86 -78l70 -53q196 -132 348 -132h33q66 15 78 20t50 23q85 39 85 113q0 28 -19 37l-22 6l-29 2l-43 -4l-133 -29l-55 -4q-29 0 -70 21 q-106 66 -170 149q-25 41 -24 74l6 41q6 18 22 29l33 16l39 6l381 2v154h-805z" />
<glyph unicode="&#xd0;" />
<glyph unicode="&#xd1;" horiz-adv-x="1304" d="M0 973v84h1300v-84h-569v-309l37 34l25 21q71 51 139 51q119 0 205 -78q80 -71 80 -186q0 -107 -107 -250l-45 -55l-61 -68l-89 68q32 11 97 100q92 117 92 213q0 119 -85 158q-32 14 -74 14q-83 0 -152 -90q-62 -76 -62 -158v-438h-106v303q-76 -76 -191 -76 q-116 0 -206 80q-46 41 -68 90q-43 117 -2 221q20 50 64 90t80 54q67 26 120 26l55 -6q37 -8 55 -16v-86l-49 16l-45 6q-70 0 -131 -53q-20 -20 -41 -61q-14 -37 -14 -74q0 -131 108 -195q37 -14 73 -14q63 0 120 47l27 28q43 42 45 83v510h-625zM352 -219q0 143 127 205 q42 14 84 14h168v-80h-139q-54 0 -82.5 -28.5t-40.5 -53.5l-8 -51q0 -37 14 -63q12 -31 34.5 -45.5t34.5 -21.5q43 -24 120 -24t145 60l51 -80l-35 -21l-28 -14q-94 -35 -158.5 -35t-108.5 17q-96 26 -155 125q-23 45 -23 96z" />
<glyph unicode="&#xd2;" horiz-adv-x="1011" d="M8 866q0 136 127 178q37 13 78 13t78 -12.5t65 -34.5q56 -47 56 -133v-277h321v373h-201v84h508v-84h-198v-973h-109v512h-321v-186l-2 -13l-17 -14l-20 -4q-38 0 -144 108l-77 93q-23 35 -27 55l6 16l16 17l19 10l14 4l123 2v287q0 37 -21 57q-32 33 -60.5 33t-51.5 -8 l-35 -19l-22 -32l-9 -44l2 -28l11 -31l4 -14l10 -19l-102 2l-9 15l-2 12l-8 29z" />
<glyph unicode="&#xd3;" horiz-adv-x="1007" d="M-188 748q47 6 71 16l56 14l145 25q82 10 123 10q87 0 135 -10q118 -12 172 -90q27 -45 27 -97q0 -106 -88 -159q-31 -16 -86 -33q-56 -10 -115 -10q36 -127 154 -176q37 -12 81 -13q92 0 191 76l35 31l43 47v594h-756v84h1008v-84h-144v-973h-108v260q-8 -12 -17 -16 l-34 -23q-121 -71 -213.5 -71t-151.5 25.5t-107.5 81.5t-76 119.5t-27.5 125.5l47 -13l60 -4l73 7q77 12 109 63q18 27 18 59q0 63 -65 95l-72 20l-86 8l-94 -6l-105 -18q-78 -16 -123 -33q-49 -12 -77 -27z" />
<glyph unicode="&#xd4;" horiz-adv-x="1079" d="M0 973v84h1075v-84h-164v-185h-458l-15 -6l-4 -6l2 -10l31 -35l29 -24l67 -45l25 -11l24 -2l37 2l43 6l107 19l55 6l57 -6q80 -21 80 -123q0 -87 -67 -145l-29 -23l-39 -23v-206h-453q-20 0 -38 -9l-35 -18l-23 -29l-8 -34q0 -118 127 -172l51 -19l76 -18q0 23 -4 34 l-2 31q0 64 27 94q53 62 161 62q45 0 78 -10q37 -6 68 -25q55 -25 63 -98q0 -98 -90 -142q-83 -34 -192 -34t-194 19t-146 60q-125 85 -125 230q0 56 49 100q50 47 123 47l383 2v97l-13 -5l-28 -2l-33 -2h-23l-73 2q-18 0 -68 11l-70 18l-165 80q-41 20 -58 35l-76 53 l-65 64l59 77l82 -77l70 -52q86 -57 180 -96q94 -33 153.5 -33t92.5 9q39 6 74 26q98 44 98 121q0 28 -19 37l-22 6l-29 2l-43 -4l-133 -29l-55 -4q-60 0 -134.5 52.5t-91.5 74.5q-38 47 -38 86l6 39q6 16 20 29l33 14l41 6l381 2v109h-805zM643 -143h10l17 -2h10l10 -2h21 q35 0 51 4q25 0 41 7t30.5 24.5t14.5 37t-8 27.5l-21 8q-16 0 -45 -12l-63 -39l-29 -21z" />
<glyph unicode="&#xd5;" />
<glyph unicode="&#xd6;" horiz-adv-x="759" d="M0 973v84h768v-84h-113v-260h-391l-14 -11l-4 -10l2 -20l10 -23l21 -35l36 -45l25 -26l27 -17l26 -8l35 -2l33 2q25 0 55 8l53 9l35 4q36 0 64 -19l32 -22l21 -9l53 -16l51 -4l58 6q16 4 59 25l10 10v-102l-16 -2h-14l-17 -3h-12l-29 -4h-57q-9 0 -28 4.5t-21 6.5l-15 4 l-12 8v-57q0 -107 -80 -175q-100 -88 -186 -88l94 -59l109 -47l-64 -80l-129 80l-31 18l-69 54l-19 18l-49 2h-69q-63 5 -95 47q-10 18 -14 55l6 31l19 31l26 18l33 9q20 0 31 -5q14 0 30 -10l29 -16l31 -23l47 -55l70 14q35 6 51 17q123 57 123 178q0 23 -4 31l-13 20 l-18 12l-25 4l-35 -4l-94 -24l-28 -4l-46 6q-38 10 -92 53l-45 47q-43 53 -66.5 100t-23.5 79q0 55 43 81l29 11l37 4l305 2v176h-549z" />
<glyph unicode="&#xd7;" />
<glyph unicode="&#xd8;" horiz-adv-x="1304" d="M0 973v84h1341v-84h-610v-309l37 34l25 21q71 51 139 51q119 0 205 -78q80 -71 80 -186q0 -107 -107 -250l-45 -55l-61 -68l-89 68q32 11 97 100q92 117 92 213q0 119 -85 158q-32 14 -74 14q-83 0 -152 -90q-62 -76 -62 -158v-438h-106v332l-486 -324l-59 80l297 176 l-70 19q-35 10 -49 22q-55 33 -90 86q-29 51 -29 113q0 127 86 201q85 81 203 81l53 -6q27 -4 51 -14v-86l-49 16l-45 6q-70 0 -131 -53q-20 -20 -41 -61q-14 -37 -14 -74q0 -113 115 -172q37 -14 63.5 -14t40.5 4l41 18l113 78v545h-625z" />
<glyph unicode="&#xd9;" horiz-adv-x="712" d="M0 973v84h805v-84h-805zM43 672v80h856v-80h-371q-69 0 -134 -54q-58 -48 -58 -117q0 -125 129 -278l53 -61l78 -76l-64 -78l-86 90l-61 74q-72 94 -113 174q-57 122 -26 208q12 33 35 64l51 52z" />
<glyph unicode="&#xda;" horiz-adv-x="516" d="M0 973v84h520v-84h-520zM68 565v86q12 -14 49 -30l94 -31l88 -19l82 -6l59 6l64 19l51 24v-102l-27 -14l-20 -9l-55 -16l-50 -4l-81 6q-45 6 -86 21l-101 32z" />
<glyph unicode="&#xdb;" horiz-adv-x="587" d="M129 516q0 45 12.5 82t40.5 68q58 67 154 67q55 0 90 -15t62 -48q55 -65 54 -154t-54 -148q-27 -32 -66 -49q-43 -14 -90 -14q-96 0 -150 62q-21 27 -41 67q-12 37 -12 82z" />
<glyph unicode="&#xdc;" horiz-adv-x="759" d="M76 479l196 117l97 66l-43 28l-27 27q-72 72 -72 157q0 131 132 176q40 13 81 13t76 -13q86 -34 119 -98q16 -40 16 -78q0 -25 -4 -36l-10 -35q-6 -20 -21 -37l-24 -37l-25 -29l-35 -30l19 -13l35 -20l18 -8l64 -35q16 -4 45 -23l200 -98l31 -14v-99l-348 181l-43 16 l-47 25l-21 10l-28 18l-150 -102l-41 -31l-59 -39l-68 -41zM324 874q0 -56 34 -92q44 -55 86 -59l29 20l21 19q47 47 49 90t-8 61q-6 20 -25 39l-39 25l-43 8q-37 0 -74 -29l-22 -34z" />
<glyph unicode="&#xdd;" horiz-adv-x="1280" d="M0 973v84h1292v-84h-571v-305l20 18l43 31q74 45 126 45t100.5 -18.5t88.5 -54.5q81 -73 81 -183q0 -122 -101 -264l-106 -113l-88 72l53 39l39 36q94 107 94 238q0 109 -89 150q-32 14 -69 14q-70 0 -139 -92q-12 -12 -24 -39l-29 -53v-494h-109v408l-436 -340l-76 71 l316 213l-17 -4h-14l-45 2l-39 10l-51 25l-45 37l-27 35q-12 20 -18 41l-10 47l-3 53v375h-147zM252 584q0 -71 16.5 -98t30.5 -41.5t43 -26.5l66 -8q119 0 183 104q15 25 21 55v404h-360v-389z" />
<glyph unicode="&#xde;" horiz-adv-x="540" d="M104 920l89 292h118l-118 -292h-89zM307 915l84 293h125l-121 -293h-88z" />
<glyph unicode="&#xdf;" horiz-adv-x="563" d="M104 932l119 293h88l-84 -293h-123zM307 928l121 293h88l-88 -293h-121z" />
<glyph unicode="&#xe0;" horiz-adv-x="911" d="M0 973v84h911v-84h-143v-264h-487q-18 0 -29 -11l-8 -20l8 -33q12 -25 29 -43l16 -27l25 -28l4 -8l10 -9l592 -2l4 -528h-47l-2 279h-230v-119q-6 -16 -10 -21l-16 -4q-9 0 -27 17l-45 49l-41 53l-14 31l2 16q4 10 20 18l23 7l338 2l2 121h-416q-47 0 -80 -17 q-31 -10 -65 -43q-31 -25 -41 -53q-19 -53 -19 -86q0 -135 238 -197q82 -10 119 -16l118 -14l-34 -74l-46 -2q-50 0 -134.5 17.5t-116.5 29.5q-148 39 -222 143q-89 145 37 277l49 49l-43 45l-26 35q-53 68 -61.5 108.5t-10.5 55.5l6 36q6 14 23 29l30 16l37 7l432 2v176 h-659z" />
<glyph unicode="&#xe1;" horiz-adv-x="1376" d="M0 973v84h1372v-84h-147v-973h-109v231q-135 -143 -321 -143q-92 0 -170 39q-74 41 -129 123h10l8 -2h21q63 0 94 18q59 34 59 105q0 33 -10 51q-6 18 -27 31l-8 2l-8 4h-10q-10 2 -13 4l-243 2q-31 0 -82 -62q-18 -29 -31 -63l-8 -74q0 -89 101 -166q36 -28 85 -57 l121 -59q45 -16 74 -21l-76 -72q-32 -12 -211 99q-203 125 -203 272l6 78q6 37 23 57l27 31l53 53l-35 39l-23 33q-59 83 -59 154l6 36q6 14 23 29l30 16l37 7l432 2v176h-659zM242 672l6 -35q6 -20 22 -41l29 -35l25 -18l340 2l38 -19q16 -6 38 -23.5t39.5 -50t17.5 -68.5 q0 -74 -47 -132l-21 -21l-29 -20l33 -16l33 -13l31 -10l22 -2q59 0 114.5 26t104.5 78l35 43l43 62v594h-348v-264h-487q-32 0 -39 -37z" />
<glyph unicode="&#xe2;" horiz-adv-x="983" d="M0 973v84h999v-84h-143v-264h-575q-20 0 -27.5 -7.5t-11.5 -27.5q0 -23 10 -43l31 -51l41 -45l32 -21l82 23l66 12l55 4q348 0 348 -207q0 -31 -18.5 -57.5t-52.5 -38.5l-48 -10l-92 -15q-39 0 -57 -4q-51 0 -77 -37q-13 -18 -13 -45q0 -59 55 -80l58 -18l63 -6l61 6 q42 6 95 37l43 -86q-78 -39 -195 -39q-130 0 -194 43q-91 47 -91 149q0 96 60 134q58 43 205 43l34 2h29l23 6l12 12l4 25q0 31 -23 51q-16 18 -63 35l-72 12l-94 4q-127 0 -223 -66q-41 -29 -70 -73q-45 -81 2 -214q15 -44 67 -108t99 -104q47 -35 82 -39l-72 -80 q-74 11 -211 188q-41 55 -71 129q-23 68 -23 120q0 92 35 143l35 47l55 55l-39 43l-26 35l-52 88q-12 33 -16 74l6 36q6 14 23 29l30 16l37 7l521 2v176h-748z" />
<glyph unicode="&#xe3;" horiz-adv-x="1404" d="M0 973v84h1409v-84h-149v-973h-107v205h-334v-113l-2 -22q-2 -10 -4 -13l-16 -12l-21 -4q-37 0 -100 63q-89 89 -101 138l3 16l10 12l16 6l25 7l80 2v172h-293q-98 0 -140 -119l-8 -72q0 -118 176 -223l113 -59q43 -16 72 -21l-76 -72q-52 0 -199 103q-190 126 -190 268 l6 66q10 52 49 94l45 47l-39 43l-26 35l-52 86q-12 33 -16 74l6 36q6 14 23 29l30 16l37 7l432 2v176h-659zM248 674q-4 -38 33 -84l32 -37q8 -6 27 -10l479 2v-260h334v688h-385v-264h-487q-18 0 -24.5 -7.5t-8.5 -27.5z" />
<glyph unicode="&#xe4;" horiz-adv-x="1452" d="M0 973v84h1460v-84h-571v-242l76 33q43 12 98 12t109.5 -19.5t100.5 -54.5q99 -77 99 -196q0 -112 -104 -279l-105 -149l-88 61q6 6 14 12t19 23l61 96q91 157 91 244q0 72 -50 123q-48 49 -123 49q-56 0 -93.5 -8t-67.5 -27l-29 -22l-8 -19v-610h-105v664h-256 q-73 0 -132 -52q-29 -24 -46 -55q-14 -37 -14 -81q0 -102 104 -263l105 -147l-88 -54l-66 90l-45 72q-49 82 -84 172q-57 180 19 266l51 50l-289 2v88h741v221h-784z" />
<glyph unicode="&#xe5;" horiz-adv-x="897" d="M151.5 468q0.5 69 25 130t74.5 112q102 103 245 103q141 0 250 -101q106 -100 106 -241.5t-92 -237.5q-43 -49 -88 -66q-78 -30 -151 -30t-133 23.5t-117.5 69.5t-88.5 107.5t-30.5 130.5zM256 401q0 -69 66 -131q27 -20 69 -41q37 -12 83 -12t93 21.5t91 65.5t71 100.5 t26 132t-57 127.5q-51 55 -149 55q-59 0 -115 -25q-47 -25 -94 -73q-84 -96 -84 -220z" />
<glyph unicode="&#xe6;" horiz-adv-x="1007" d="M0 973v84h1004v-84h-220v-260h-399q-137 0 -137 -166q0 -159 180 -234q54 -16 113 -16l20 2l31 4l24 4l13 2l-2 19q0 16 10 37q14 53 43 82.5t60 29.5t46 -7q34 -16 48 -52l6 -37q0 -49 -22.5 -84t-41 -45t-49.5 -14l4 -27l14 -72l15 -45l24 -59l35 -55l21 -29l20 -23 h-121l-37 84l-24 60q-16 35 -27 80l-8 73l-424 -309l-63 88l376 223q-70 0 -103.5 7.5t-51 10.5t-41.5 15q-197 74 -197 287q0 106 56.5 175t148.5 69l332 2v180h-676z" />
<glyph unicode="&#xe7;" horiz-adv-x="911" d="M0 973v84h911v-84h-139v-973h-108v444l-512 -444l-80 72l344 272q-119 0 -184 77q-33 40 -56 93q-16 54 -16 113v346h-160zM264 612q0 -95 62 -145q23 -18 53 -35q18 -6 52 -8t45 1t30 13q57 31 82 51l71 68v416h-395v-361z" />
<glyph unicode="&#xe8;" horiz-adv-x="540" d="M16 868q0 41 14.5 79t41.5 67q55 59 151 59q75 0 131 -45q58 -45 58 -115v-61h-93v63q0 37 -22.5 59.5t-59.5 22.5t-54 -10t-31 -29l-21 -40l-6 -48q0 -80 38 -133t64 -80q25 -18 49 -22l70 20l80 9l37 -2l41 -5l45 -77l-137 -7q-49 0 -80 -10q-127 -29 -127 -149 q0 -90 108 -131l64 -9q121 0 252 97l45 41l53 57v-109q0 -13 -29 -36l-73 -52q-83 -56 -198 -76q-38 -6 -80 -6t-86 15.5t-86 47.5q-83 63 -83 157q0 68 51 133l21 20l33 27q-33 15 -62 46q-55 60 -71.5 89t-27.5 55q-20 47 -20 88zM508 973v84h41v-84h-41z" />
<glyph unicode="&#xe9;" horiz-adv-x="1032" d="M0 973v84h1036v-80h-147v-977h-109v457l-381 -205l62 -105l2 -18l2 -10q0 -25 -12 -31l-17 -4l-20 -2l-29 2q-18 0 -37 8l-47 12l-92 43q-16 10 -27 23l-14 20l-4 23q0 47 65 84l496 211l-65 74q-35 41 -74 69q-33 31 -60 43l-30 13l-33 8l-37 4l-33 2l-49 -2l-45 -6 l-18 -4l-23 -7l8 -147l-6 -23l-6 -12l-14 -12l-17 -4l-20 4l-27 16l-31 27l-34 37l-52 65l-18 29l-4 20q0 25 29 48q39 19 88 34l120 21l132 8q89 0 114 -10q39 -15 74 -46.5t86 -88.5l98 -115v420h-780z" />
<glyph unicode="&#xea;" horiz-adv-x="983" d="M0 973v84h999v-84h-219v-213h-432q-96 0 -96 -111q0 -88 100 -147q35 -20 94 -41q62 -15 113 -15t95 12q69 17 112 44l35 22l39 33l80 -61l-76 -52l-64 -32v-232h-411q-23 0 -41 -10q-14 -4 -35 -25l-23 -34l-6 -41q0 -49 25.5 -85t87.5 -69q41 -18 81 -28 q57 -13 98.5 -13t65.5 5q41 8 83 26l94 43q37 18 53 35l72 -64l-62 -43l-86 -43q-97 -39 -185 -39t-113 3t-81.5 15.5t-116 49.5t-90.5 92q-31 49 -30.5 102.5t11.5 84t33 54.5q46 54 120 54l356 2v133l-47 -10l-33 -2h-41q-162 0 -276 61q-66 37 -103 90q-33 59 -33 114.5 t12.5 91.5t38.5 58q58 46 138 46l344 2v137h-680z" />
<glyph unicode="&#xeb;" horiz-adv-x="983" d="M0 973v84h999v-84h-219v-213h-432q-47 0 -75.5 -29t-28.5 -77t20 -89q20 -33 65.5 -62.5t88.5 -40.5q78 -20 133 -20t99 10q76 19 112 44l33 20l36 35l76 -64l-63 -43l-64 -32v-232h-465q-38 0 -71 -35l-23 -34l-8 -41q0 -49 27 -90q57 -73 197 -105q44 -10 108 -10l84 6 l69 18q82 28 82 103q0 38 -28 76l-31 18l67 66l29 -35l23 -23q45 -52 45 -102.5t-29 -93.5q-44 -75 -178 -100q-65 -13 -142 -13t-156 19.5t-142 54.5q-134 74 -134 215q0 67 50 120q24 27 53 42q37 14 65 14l408 2v133q-39 -12 -78 -18l-78 -5q-151 0 -264 68 q-121 72 -121 219q0 49 15 80q20 60 101 91q38 14 81 14l344 2v137h-680z" />
<glyph unicode="&#xec;" horiz-adv-x="1079" d="M0 973v84h1075v-84h-164v-234h-458l-17 -6l-4 -10l2 -12l4 -9l25 -30l41 -41l28 -25l31 -16l35 -8l39 -2l35 2l137 20l51 4q108 0 125 -78l6 -55q0 -115 -119 -186q-26 -16 -104 -41q-55 -12 -117 -13h-57q-18 4 -27 5l-75 16l-29 8l-31 12l31 -51l26 -35q23 -31 64 -65 q27 -16 55 -21l43 2l162 33l59 8q27 0 46 -10q40 -11 71 -63q6 -14 10 -45q0 -59 -25.5 -107.5t-78.5 -82.5t-99 -45q-78 -19 -163 -19q-193 0 -385 129l-74 55l-86 74l64 73q72 -72 108.5 -94t42.5 -26q190 -123 352 -123q67 0 107.5 18.5t67.5 34.5q59 36 67 100 q-4 27 -12 35l-19 8l-26 4l-201 -41l-51 -2q-79 0 -164 79q-86 80 -86 173v9l2 12v8l4 10l-133 88l-100 72l-31 25l59 86l86 -78l70 -53q196 -132 348 -132h33q66 15 78 20t50 23q85 39 85 113q0 28 -19 37l-22 6l-29 2l-43 -4l-133 -29l-55 -4q-29 0 -70 21 q-106 66 -170 149q-25 41 -24 74l6 41q6 18 22 29l33 16l39 6l381 2v154h-805z" />
<glyph unicode="&#xed;" horiz-adv-x="788" d="M0 973v84h801v-84h-164v-213h-334l-33 -6l-22 -2q-51 -13 -55 -74q0 -50 40 -94l27 -25l21 -8l92 29l8 -2l10 2h17l14 2h31l8 -2h10l18 -2h15l49 -86h-18l-21 4h-12l-13 2h-49t-51 -9l-57 -18q-29 -16 -51 -49q-40 -83 3 -165q15 -30 50 -52l57 -23l72 -8l35 2l22 6l-4 8 v39q0 29 4 43l15 35q12 20 32 33q25 10 51 10t41 -7q34 -16 48 -56l6 -41l-6 -41l-19 -35q-14 -16 -29 -25l-34 -8l106 -184l-90 -49l-92 209l-8 -7l-19 -2l-28 -4h-31q-207 0 -281 127q-26 52 -26 102t4 62l14 41l33 49l12 21l-39 26l-26 21q-50 50 -58 79t-8 61t11.5 61.5 t32 45t34.5 21.5t34 13q25 8 60 8l272 2v133h-532z" />
<glyph unicode="&#xee;" horiz-adv-x="1007" d="M-188 748q47 6 71 16l56 14l145 25q82 10 123 10q87 0 135 -10q118 -12 172 -90q27 -45 27 -97q0 -106 -88 -159q-31 -16 -86 -33q-56 -10 -115 -10q36 -127 154 -176q37 -12 81 -13q92 0 191 76l35 31l43 47v594h-756v84h1008v-84h-144v-973h-108v260q-8 -12 -17 -16 l-34 -23q-121 -71 -213.5 -71t-151.5 25.5t-107.5 81.5t-76 119.5t-27.5 125.5l47 -13l60 -4l73 7q77 12 109 63q18 27 18 59q0 63 -65 95l-72 20l-86 8l-94 -6l-105 -18q-78 -16 -123 -33q-49 -12 -77 -27z" />
<glyph unicode="&#xef;" horiz-adv-x="1079" d="M0 973v84h1075v-84h-164v-185h-458l-15 -6l-4 -6l2 -10l31 -35l29 -24l67 -45l25 -11l24 -2l37 2l43 6l107 19l55 6l57 -6q80 -21 80 -123q0 -87 -67 -145l-29 -23l-39 -23v-206h-453q-20 0 -38 -9l-35 -18l-23 -29l-8 -34q0 -118 127 -172l51 -19l76 -18q0 23 -4 34 l-2 31q0 64 27 94q53 62 161 62q45 0 78 -10q37 -6 68 -25q55 -25 63 -98q0 -98 -90 -142q-83 -34 -192 -34t-194 19t-146 60q-125 85 -125 230q0 56 49 100q50 47 123 47l383 2v97l-13 -5l-28 -2l-33 -2h-23l-73 2q-18 0 -68 11l-70 18l-165 80q-41 20 -58 35l-76 53 l-65 64l59 77l82 -77l70 -52q86 -57 180 -96q94 -33 153.5 -33t92.5 9q39 6 74 26q98 44 98 121q0 28 -19 37l-22 6l-29 2l-43 -4l-133 -29l-55 -4q-60 0 -134.5 52.5t-91.5 74.5q-38 47 -38 86l6 39q6 16 20 29l33 14l41 6l381 2v109h-805zM643 -143h10l17 -2h10l10 -2h21 q35 0 51 4q25 0 41 7t30.5 24.5t14.5 37t-8 27.5l-21 8q-16 0 -45 -12l-63 -39l-29 -21z" />
<glyph unicode="&#xf0;" horiz-adv-x="983" d="M0 973v84h999v-84h-219v-213h-432q-47 0 -75.5 -29t-28.5 -77t20 -89q20 -33 65.5 -62.5t88.5 -40.5q78 -20 135 -20q111 0 174 142l16 57l17 84l78 -25q0 -39 -4 -59l-3 -53q0 -27 -8 -49l-10 -41l-6 -6l-14 -31l-7 -25l-4 -10l-2 -16v-230h-465q-38 0 -71 -35l-23 -34 l-8 -41q0 -49 27 -90q57 -73 197 -105q44 -10 108 -10l84 6l69 18q82 28 82 103q0 38 -28 76l-31 18l67 66l29 -35l23 -23q45 -52 45 -102.5t-29 -93.5q-44 -75 -178 -100q-65 -13 -142 -13t-156 19.5t-142 54.5q-134 74 -134 215q0 67 50 120q24 27 53 42q37 14 65 14 l408 2v133q-39 -12 -78 -18l-78 -5q-151 0 -264 68q-121 72 -121 219q0 49 15 80q20 60 101 91q38 14 81 14l344 2v137h-680z" />
<glyph unicode="&#xf1;" horiz-adv-x="491" d="M41 207q0 45 14 76q10 31 41 57q59 51 135 51q84 0 137 -50q56 -53 56 -135.5t-56.5 -132.5t-136.5 -50q-74 0 -131 45q-59 47 -59 139zM127 203l6 -43q6 -16 21 -35l30 -23l47 -8l43 8q18 6 33 23l21 35l8 43q0 25 -8 43l-19 35q-12 16 -35 24l-43 8q-47 0 -77 -34 l-21 -35z" />
<glyph unicode="&#xf2;" />
<glyph unicode="&#xf3;" horiz-adv-x="1376" d="M0 973v84h1376v-80h-147v-977h-109v403l-293 -268l-79 66l305 248l-6 2l-7 4l-8 2q-27 18 -74 28l-73 9l-58 -5l-65 -12l-51 -14l-23 -8l-51 94l174 29l66 4h24l10 -2h13q14 -2 18 -5l14 -2l-28 52l-21 30q-78 78 -211 78l-45 -4q-53 0 -65 -12l-15 -2q0 -91 -49 -164 q-25 -31 -57 -51q-33 -16 -72 -17l-22 2l-27 4l127 -192l55 -72l99 -112l43 -43l-84 -70q-25 10 -99 104l-188 271l-61 92l-132 223l89 58l59 -115q30 -72 121 -72l45 6q18 6 26 21l15 30l4 44l-2 30v281h-461zM567 801q18 0 29 4q14 0 22 4l56 8l39 4q177 0 282 -141 l33 -59l37 -82l55 -35v469h-553v-172z" />
<glyph unicode="&#xf4;" horiz-adv-x="1304" d="M0 973v84h1296v-84h-565v-260l49 35l66 30l74 19l73 8q141 0 189 -97q18 -34 18 -80q0 -82 -53 -155l-17 -16l-14 -15l-76 54l11 6q53 66 53 125q0 23 -10 41q-9 35 -64 57l-43 8q-53 0 -160 -65l-43 -27l-53 -39v-207l51 25l105 39l61 10q115 0 172 -57q64 -51 64 -150 q0 -114 -99 -199l-41 -30l-57 -33l-55 72l43 24l31 23q73 61 73 143q0 37 -10 60q-10 41 -70 55l-55 8q-23 0 -63 -12l-76 -37l-74 -49v-287h-106v209q-8 -12 -29 -25l-64 -32q-98 -50 -145 -50t-61.5 2t-49 14.5t-69.5 44.5q-72 66 -72 159q0 33 10.5 55t13.5 28.5t19 26.5 l25 25l24 16l-39 29l-26 37l-17 39l-4 40q0 29 2 40.5t17.5 44t49.5 64.5q71 67 171 67l47 -5l55 -12l13 -4l16 -6l41 -90l-33 6l-22 6l-62 12l-41 4q-85 0 -137 -88q-6 -14 -8 -47q-4 -58 69 -92l31 6l33 2l37 -2l106 -12l33 -2l41 -94l-78 16l-63 10l-43 4q-37 0 -66 -10 q-65 -13 -93 -66q-13 -24 -13 -54q0 -59 35 -91q14 -16 43 -26l63 -9q84 0 162 60l57 41l21 26v656h-625z" />
<glyph unicode="&#xf5;" horiz-adv-x="12" d="M-774 1327l76 84l379 -354h-52zM-547 1520l96 53l328 -516h-72zM-260 1455q0 46 15.5 78t50.5 57q66 50 157 50l57 -6l56 -18v-82l-17 4l-14 6l-41 8l-39 4q-87 0 -121 -82q-12 -28 -12 -61t2 -47q8 -59 64 -143l28 -39l39 -47l-78 2q-14 9 -28 28l-47 74q-8 14 -26.5 54 t-27.5 59q-18 55 -18 101zM-53 1315v115h125v-115h-125z" />
<glyph unicode="&#xf6;" horiz-adv-x="1007" d="M-2 193q0 46 39 83q38 31 94 37l27 -4l26 -12l23 -18l18 -27l70 -150l237 125q-70 0 -103.5 7.5t-51 10.5t-41.5 15q-197 74 -197 287q0 106 56.5 175t148.5 69l332 2v180h-676v84h1004v-84h-220v-260h-399q-137 0 -137 -166q0 -159 180 -234q54 -16 113 -16l20 2l31 4 l24 4l13 2l-2 19q0 16 10 37q14 53 43 82.5t60 29.5t46 -7q34 -16 48 -52l6 -37q0 -49 -22.5 -84t-41 -45t-49.5 -14l4 -27l14 -72l15 -45l24 -59l35 -55l21 -29l20 -23h-121l-37 84l-24 60q-16 35 -27 80l-8 73l-326 -172l41 -88l7 -12l2 -8l-15 -19q-23 0 -35 4l-69 23 q-14 6 -34 13q-51 18 -62 36v10l6 15l12 14l68 33l-72 157l-21 23l-26 8l-25 -6q-10 -2 -22 -14l-17 -21l-4 -24l2 -13v-8l8 -12l11 -14l8 -7l6 -6l10 -8l-55 -25l-8 5l-4 6l-13 14l-8 14l-8 25z" />
<glyph unicode="&#xf7;" horiz-adv-x="759" d="M0 973v84h768v-84h-113v-260h-391l-14 -11l-4 -10l2 -20l10 -23l21 -35l36 -45l25 -26l27 -17l26 -8l35 -2l33 2q25 0 55 8l53 9l35 4q36 0 64 -19l32 -22l21 -9l53 -16l51 -4l58 6q16 4 59 25l10 10v-102l-16 -2h-14l-17 -3h-12l-29 -4h-57q-9 0 -28 4.5t-21 6.5l-15 4 l-12 8v-57q0 -107 -80 -175q-100 -88 -186 -88l94 -59l109 -47l-64 -80l-129 80l-31 18l-69 54l-19 18l-49 2h-69q-63 5 -95 47q-10 18 -14 55l6 31l19 31l26 18l33 9q20 0 31 -5q14 0 30 -10l29 -16l31 -23l47 -55l70 14q35 6 51 17q123 57 123 178q0 23 -4 31l-13 20 l-18 12l-25 4l-35 -4l-94 -24l-28 -4l-46 6q-38 10 -92 53l-45 47q-43 53 -66.5 100t-23.5 79q0 55 43 81l29 11l37 4l305 2v176h-549z" />
<glyph unicode="&#xf8;" horiz-adv-x="415" d="M68 551l20 16l55 43l25 31l16 31l15 41l10 41l4 32v431q0 85 63 168q62 83 162 83l27 -4l35 -6l168 2v-63h-164q-75 0 -142 -53q-30 -25 -49 -62q-14 -37 -14 -72v-422l-4 -34q0 -20 -6 -45q-9 -37 -19 -54l-22 -37l-109 -65l21 -16q41 -23 53 -37l27 -23l8 -14l12 -17 l19 -51l14 -55l6 -43v-418q0 -122 121 -162q42 -10 84 -10h164v-80h-168q-66 0 -115 17q-111 28 -151 122q-21 52 -21 109v428q0 72 -30.5 125t-55.5 78t-59 45z" />
<glyph unicode="&#xf9;" horiz-adv-x="1404" d="M0 973v84h1409v-84h-149v-973h-107v205h-334v-113l-2 -22q-2 -10 -4 -13l-16 -12l-21 -4q-37 0 -100 63q-89 89 -101 138l3 16l10 12l16 6l25 7l80 2v172h-357q-33 0 -59 8h-10q-5 1 -29 10l-37 39l-24 35q-44 59 -53 105t-9 53l6 36q6 14 23 29l30 16l37 7l432 2v176 h-659zM248 674q-4 -38 33 -84l32 -37q8 -6 27 -10l479 2v-260h334v688h-385v-264h-487q-18 0 -24.5 -7.5t-8.5 -27.5z" />
<glyph unicode="&#x152;" horiz-adv-x="897" d="M151.5 468q0.5 69 25 130t74.5 112q102 103 245 103q141 0 250 -101q106 -100 106 -241.5t-92 -237.5q-43 -49 -88 -66q-78 -30 -151 -30t-133 23.5t-117.5 69.5t-88.5 107.5t-30.5 130.5zM256 401q0 -69 66 -131q27 -20 69 -41q37 -12 83 -12t93 21.5t91 65.5t71 100.5 t26 132t-57 127.5q-51 55 -149 55q-59 0 -115 -25q-47 -25 -94 -73q-84 -96 -84 -220z" />
<glyph unicode="&#x153;" />
<glyph unicode="&#x178;" horiz-adv-x="712" d="M0 973v84h805v-84h-805zM43 672v80h856v-80h-371q-69 0 -134 -54q-58 -48 -58 -117q0 -125 129 -278l53 -61l78 -76l-64 -78l-86 90l-61 74q-72 94 -113 174q-57 122 -26 208q12 33 35 64l51 52z" />
<glyph unicode="&#x2c6;" horiz-adv-x="964" d="M180 846q0 93 74 143q25 12 53 12l318 3l47 -97h-303q-16 0 -36.5 -9t-33.5 -28l-20 -41q-19 -57 8 -96l32 -53l17 -21l24 -24l273 2l51 -100h-260q-51 0 -80 -56l-22 -55l-7 -55q0 -131 117 -197q39 -14 74 -14l49 8l-6 4l-2 4l-8 23l-2 26q0 48 22.5 70t46.5 33l41 8 q81 0 107 -68q10 -24 10 -50t-8 -47t-27 -46l-24 -29l-21 -14l45 -72l109 -145l55 -58l-82 -51l-23 33l-51 82l-86 158l-14 37l-43 -13q-16 0 -25 -4h-20q-55 0 -111.5 30t-120.5 93q-55 61 -73 99q-39 79 -39 137q0 125 71 186l17 16l-43 49l-37 62l-25 63z" />
<glyph unicode="&#x2dc;" horiz-adv-x="1007" d="M-2 193q0 46 39 83q38 31 94 37l27 -4l26 -12l23 -18l18 -27l70 -150l237 125q-70 0 -103.5 7.5t-51 10.5t-41.5 15q-197 74 -197 287q0 106 56.5 175t148.5 69l332 2v180h-676v84h1004v-84h-220v-260h-399q-137 0 -137 -166q0 -159 180 -234q54 -16 113 -16l20 2l31 4 l24 4l13 2l-2 19q0 16 10 37q14 53 43 82.5t60 29.5t46 -7q34 -16 48 -52l6 -37q0 -49 -22.5 -84t-41 -45t-49.5 -14l4 -27l14 -72l15 -45l24 -59l35 -55l21 -29l20 -23h-121l-37 84l-24 60q-16 35 -27 80l-8 73l-326 -172l41 -88l7 -12l2 -8l-15 -19q-23 0 -35 4l-69 23 q-14 6 -34 13q-51 18 -62 36v10l6 15l12 14l68 33l-72 157l-21 23l-26 8l-25 -6q-10 -2 -22 -14l-17 -21l-4 -24l2 -13v-8l8 -12l11 -14l8 -7l6 -6l10 -8l-55 -25l-8 5l-4 6l-13 14l-8 14l-8 25z" />
<glyph unicode="&#x2000;" horiz-adv-x="820" />
<glyph unicode="&#x2001;" horiz-adv-x="1640" />
<glyph unicode="&#x2002;" horiz-adv-x="820" />
<glyph unicode="&#x2003;" horiz-adv-x="1640" />
<glyph unicode="&#x2004;" horiz-adv-x="546" />
<glyph unicode="&#x2005;" horiz-adv-x="410" />
<glyph unicode="&#x2006;" horiz-adv-x="273" />
<glyph unicode="&#x2007;" horiz-adv-x="273" />
<glyph unicode="&#x2008;" horiz-adv-x="205" />
<glyph unicode="&#x2009;" horiz-adv-x="328" />
<glyph unicode="&#x200a;" horiz-adv-x="91" />
<glyph unicode="&#x2010;" horiz-adv-x="344" d="M104 0v135h144v-135h-144z" />
<glyph unicode="&#x2011;" horiz-adv-x="344" d="M104 0v135h144v-135h-144z" />
<glyph unicode="&#x2012;" horiz-adv-x="344" d="M104 0v135h144v-135h-144z" />
<glyph unicode="&#x2013;" horiz-adv-x="1007" d="M0 973v84h1028v-84h-223v-277h-377q-55 0 -102 -49l-33 -51q-6 -16 -10 -55q0 -191 178 -254l74 -17l106 -8q-2 10 -4 12v11q0 20 -4 30l-2 23q0 31 4 45l18 41q24 39 86 39q20 0 37 -8q37 -18 55 -64l9 -41q0 -63 -39 -102l-17 -15l-24 -16l51 -113l35 -59l35 -47 l14 -16l16 -23h-135l-112 229l-17 -4h-14q-164 0 -261 47.5t-147 122.5q-45 80 -45 185q0 97 60 168q56 75 145 75l303 2v189h-688zM444 -274q0 151 129 208q45 15 84 15h172v-84h-145q-53 0 -83 -30t-40 -50l-8 -51q0 -75 55 -114q62 -44 111 -44t69.5 3t42.5 15l46 25 q20 12 24 23l55 -80l-36 -21l-29 -14l-84 -27l-43 -6l-43 -2q-55 0 -98 14t-86 45q-93 67 -93 175z" />
<glyph unicode="&#x2014;" horiz-adv-x="1304" d="M0 973v84h1300v-84h-569v-309l37 34l25 21q71 51 139 51q119 0 205 -78q80 -71 80 -186q0 -107 -107 -250l-45 -55l-61 -68l-89 68q32 11 97 100q92 117 92 213q0 119 -85 158q-32 14 -74 14q-83 0 -152 -90q-62 -76 -62 -158v-438h-106v303q-76 -76 -191 -76 q-116 0 -206 80q-46 41 -68 90q-43 117 -2 221q20 50 64 90t80 54q67 26 120 26l55 -6q37 -8 55 -16v-86l-49 16l-45 6q-70 0 -131 -53q-20 -20 -41 -61q-14 -37 -14 -74q0 -131 108 -195q37 -14 73 -14q63 0 120 47l27 28q43 42 45 83v510h-625zM352 -219q0 143 127 205 q42 14 84 14h168v-80h-139q-54 0 -82.5 -28.5t-40.5 -53.5l-8 -51q0 -37 14 -63q12 -31 34.5 -45.5t34.5 -21.5q43 -24 120 -24t145 60l51 -80l-35 -21l-28 -14q-94 -35 -158.5 -35t-108.5 17q-96 26 -155 125q-23 45 -23 96z" />
<glyph unicode="&#x2018;" />
<glyph unicode="&#x2019;" horiz-adv-x="759" d="M0 973v84h756v-84h-148q25 -25 43 -55l33 -60l18 -63l9 -66q0 -76 -27 -139t-81 -122q-107 -118 -267 -118l340 -282l-72 -72l-491 416l71 71l68 -55l12 -4h12l54 2q63 8 114 37l64 43l49 51l33 55l10 43l4 60l-31 -27l-24 -18q-56 -40 -133 -47q-149 0 -221 135 q-16 39 -16.5 93.5t57.5 119.5zM289 850q0 -93 81 -128q25 -11 59 -11q69 0 124 55l39 55l-19 43q-17 55 -65.5 83t-85.5 28t-57 -10q-49 -13 -68 -68z" />
<glyph unicode="&#x201a;" horiz-adv-x="440" d="M-219 1470l106 3q0 -94 68 -158q27 -20 70 -41q42 -14 84.5 -14t79 12t69.5 38q70 57 70 160l106 3q-20 -208 -198 -269q-62 -22 -130 -22q-202 0 -288 166q-25 49 -37 122zM-20 973v84h507v-84h-198v-973h-109v973h-200z" />
<glyph unicode="&#x201c;" horiz-adv-x="1011" d="M8 866q0 136 127 178q37 13 78 13t78 -12.5t65 -34.5q56 -47 56 -133v-277h321v373h-201v84h508v-84h-198v-973h-109v512h-321v-186l-2 -13l-17 -14l-20 -4q-38 0 -144 108l-77 93q-23 35 -27 55l6 16l16 17l19 10l14 4l123 2v287q0 37 -21 57q-32 33 -60.5 33t-51.5 -8 l-35 -19l-22 -32l-9 -44l2 -28l11 -31l4 -14l10 -19l-102 2l-9 15l-2 12l-8 29z" />
<glyph unicode="&#x201d;" />
<glyph unicode="&#x201e;" horiz-adv-x="897" d="M125 969l137 30l88 15l66 4q151 0 272 -115q117 -109 117 -262q0 -53 -19.5 -106.5t-41.5 -82.5q-44 -54 -85 -85.5t-88 -49.5l47 -98q23 -43 58 -90l67 -86l80 -80l-88 -43l-69 92l-58 88l-57 99l-43 98l-57 -2l-89 6q-83 14 -120 79q-19 32 -19 67q0 61 35 85l39 25 l47 8q63 0 119 -67l45 -68l37 14l28 15q148 80 148 215q0 61 -23 104q-41 107 -200 131q-27 4 -58 4q-147 0 -239 -67z" />
<glyph unicode="&#x2022;" />
<glyph unicode="&#x2026;" horiz-adv-x="823" d="M172 1004h324q83 0 157 -74q27 -33 45 -79q51 -130 -28 -241l-49 -49q66 -46 88 -147l6 -58q0 -92 -47 -163q-27 -33 -60 -56q-29 -16 -76 -26l13 -23l22 -33l99 -114l77 -78l21 -19l-76 -63l-26 33l-66 82l-33 45l-82 127l-10 22l-57 2l-80 2q-39 6 -62.5 18.5 t-46.5 41.5q-16 29 -16 59q0 54 31 80l32 20l39 9q40 0 109 -50l51 -51q14 0 35 10l53 33q74 51 74 111q0 23 -8 45l-19 51l-22 41l-13 14l-223 2l-76 105h248l35 16l27 19q53 42 61 118q0 67 -44 92q-24 13 -58 19l-80 8l-64 -4q-37 0 -75 -8l-64 -10q-20 -2 -27 -9z" />
<glyph unicode="&#x202f;" horiz-adv-x="328" />
<glyph unicode="&#x2039;" horiz-adv-x="915" d="M113 651h239l-14 6l-21 19q-22 22 -43 67q-10 37 -10 83t22 87q35 67 142 86l109 9h122l17 -101l-37 2q-18 0 -27 4l-65 7l-51 2q-74 0 -122 -44q-50 -46 -50 -112q0 -53 45 -86l18 -14l29 -17l389 2l18 -102h-323q-44 0 -117 -84q-51 -66 -59.5 -99.5t-8.5 -70.5t15 -71 q25 -55 104 -68l86 -6l72 2q91 0 143 -17q107 -21 147 -96q17 -33 17 -72l-6 -35q-2 -14 -14 -28l-52 -35l-39 31l29 16l12 6q8 6 15 21l4 28q-2 10 -4 13l-15 10l-22 10l-29 10q-31 12 -73 19l-89 6q-160 0 -235 45q-68 37 -105 113q-33 78 -32 186q0 74 37 123l14 18 l24 23l-180 -2z" />
<glyph unicode="&#x203a;" horiz-adv-x="12" d="M-774 1327l76 84l379 -354h-52zM-547 1520l96 53l328 -516h-72zM-260 1455q0 46 15.5 78t50.5 57q66 50 157 50l57 -6l56 -18v-82l-17 4l-14 6l-41 8l-39 4q-87 0 -121 -82q-12 -28 -12 -61t2 -47q8 -59 64 -143l28 -39l39 -47l-78 2q-14 9 -28 28l-47 74q-8 14 -26.5 54 t-27.5 59q-18 55 -18 101zM-53 1315v115h125v-115h-125z" />
<glyph unicode="&#x205f;" horiz-adv-x="410" />
<glyph unicode="&#x2122;" horiz-adv-x="593" d="M0 973v84h827v-80zM39 702q0 25 29 48q39 19 88 34l120 21l132 8q89 0 114 -10q39 -15 74 -46.5t86 -88.5l98 -115v-96l-381 -205l62 -105l2 -18l2 -10q0 -25 -12 -31l-17 -4l-20 -2l-29 2q-18 0 -37 8l-47 12l-92 43q-16 10 -27 23l-14 20l-4 23q0 47 65 84l496 211 l-65 74q-35 41 -74 69q-33 31 -60 43l-30 13l-33 8l-37 4l-33 2l-49 -2l-45 -6l-18 -4l-23 -7l8 -147l-6 -23l-6 -12l-14 -12l-17 -4l-20 4l-27 16l-31 27l-34 37l-52 65l-18 29z" />
<glyph unicode="&#xe000;" horiz-adv-x="1054" d="M0 0v1055h1055v-1055h-1055z" />
</font>
</defs>
</svg>
